<?xml version="1.0" standalone="no"?>
<!DOCTYPE svg PUBLIC "-//W3C//DTD SVG 1.1//EN" "http://www.w3.org/Graphics/SVG/1.1/DTD/svg11.dtd" >
<svg xmlns="http://www.w3.org/2000/svg">
<metadata></metadata>
<defs>
<font id="helvetica_narrow_ceregular" horiz-adv-x="934" >
<font-face units-per-em="2048" ascent="1638" descent="-410" />
<missing-glyph horiz-adv-x="467" />
<glyph horiz-adv-x="0" />
<glyph horiz-adv-x="682" />
<glyph unicode=" "  horiz-adv-x="467" />
<glyph unicode="&#x09;" horiz-adv-x="467" />
<glyph unicode="&#xa0;" horiz-adv-x="467" />
<glyph unicode="!" horiz-adv-x="467" d="M153 0v209h161v-209h-161zM153 985v485h161v-485l-38 -635h-84z" />
<glyph unicode="&#x22;" horiz-adv-x="596" d="M83 1470h148l-24 -588h-99zM363 1470h150l-26 -588h-99z" />
<glyph unicode="#" d="M1 446l25 116h191l77 343h-190l25 117h191l97 448h122l-99 -448h181l101 448h121l-100 -448h191l-25 -117h-191l-78 -343h191l-25 -116h-189l-101 -446h-120l99 446h-183l-97 -446h-123l99 446h-190zM339 562h179l78 343h-181z" />
<glyph unicode="$" d="M54 438h151q2 -96 18 -150t45 -89t65.5 -54t93.5 -30v536q-107 28 -172 64q-87 49 -132 126t-45 192q0 117 46.5 211t136.5 146q69 40 166 48v147h80v-147q157 -13 246.5 -110.5t94.5 -272.5h-142q-16 112 -62 164t-137 71v-479q123 -38 184.5 -70t103 -81t63.5 -116.5 t22 -145.5q0 -77 -20.5 -151.5t-55.5 -125t-82.5 -84t-104.5 -50.5q-43 -14 -110 -20v-162h-80v162q-102 9 -173 45t-116.5 97.5t-64.5 138.5t-19 190zM229 1058q0 -88 50 -147t148 -80v459q-87 -3 -142.5 -65t-55.5 -167zM507 115q63 3 105 25q56 30 86.5 91t30.5 142 q0 98 -48.5 158t-173.5 98v-514z" />
<glyph unicode="%" horiz-adv-x="1493" d="M64 1077q0 184 77.5 274.5t198.5 90.5q119 0 195.5 -89.5t76.5 -271.5q0 -122 -37.5 -207t-100.5 -125t-138 -40q-106 0 -178 74q-94 96 -94 294zM194 1078q0 -139 42 -194t103 -55q58 0 99.5 55.5t41.5 190.5q0 137 -41 192t-100 55t-96 -49q-49 -64 -49 -195zM292 -82 l737 1581h109l-737 -1581h-109zM839 340q0 184 78 274.5t199 90.5q118 0 194.5 -89.5t76.5 -270.5q0 -123 -37 -208t-100.5 -125t-137.5 -40q-107 0 -179 74q-94 96 -94 294zM970 341q0 -139 42 -194t102 -55q58 0 99.5 55.5t41.5 190.5q0 137 -41 192t-100 55t-101.5 -56.5 t-42.5 -187.5z" />
<glyph unicode="&#x26;" horiz-adv-x="1120" d="M101 371q0 103 29.5 177.5t81.5 130t165 138.5q-67 93 -96.5 170.5t-29.5 159.5q0 148 81 235.5t205 87.5q118 0 194 -80t76 -221q0 -86 -27.5 -154t-68.5 -116.5t-123 -116.5l220 -319q28 79 49 229h141q-12 -122 -36 -210t-63 -165l215 -317h-192l-112 168 q-81 -109 -161 -155t-192 -46q-157 0 -256.5 106.5t-99.5 297.5zM252 373q0 -116 66 -187t157 -71q147 0 256 174l-272 405q-121 -90 -164 -161t-43 -160zM392 1163q0 -54 24.5 -112.5t94.5 -151.5q81 63 117.5 125.5t36.5 133.5q0 78 -38.5 121.5t-96.5 43.5 q-61 0 -99.5 -42t-38.5 -118z" />
<glyph unicode="'" horiz-adv-x="322" d="M86 1470h150l-28 -588h-95z" />
<glyph unicode="(" horiz-adv-x="559" d="M121 534q0 249 66 478q67 230 208 479h99q-92 -213 -135 -346t-65 -276t-22 -334q0 -156 13 -271q14 -115 41 -221.5t65 -210.5t103 -254h-99q-86 153 -135 270q-65 158 -102 328t-37 358z" />
<glyph unicode=")" horiz-adv-x="559" d="M66 -422q93 215 135 348q43 133 65 275t22 333q0 156 -13 271q-14 115 -41 221.5t-65 210.5t-103 254h99q86 -154 135 -271q65 -157 102 -326q37 -170 37 -359q0 -248 -66 -478q-67 -230 -208 -479h-99z" />
<glyph unicode="*" horiz-adv-x="653" d="M70 1210l32 103l175 -68v225h100v-225l175 68l32 -103l-178 -69l109 -193l-79 -65l-109 188l-109 -188l-79 65l109 193z" />
<glyph unicode="+" horiz-adv-x="981" d="M66 432v172h354v432h141v-432h355v-172h-355v-432h-141v432h-354z" />
<glyph unicode="," horiz-adv-x="467" d="M148 0v221h171v-205q0 -143 -40.5 -210.5t-130.5 -100.5v94q28 8 45.5 27t27.5 55.5t13 118.5h-86z" />
<glyph unicode="-" horiz-adv-x="559" d="M74 479v185h411v-185h-411z" />
<glyph unicode="." horiz-adv-x="467" d="M148 0v221h171v-221h-171z" />
<glyph unicode="/" horiz-adv-x="467" d="M0 0l382 1469h125l-382 -1469h-125z" />
<glyph unicode="0" d="M62 693q0 415 141 609q99 136 273 136q111 0 197.5 -64t136.5 -205q62 -174 62 -456q0 -416 -138 -604q-104 -142 -271 -142q-126 0 -216.5 81.5t-137.5 253.5q-47 173 -47 391zM223 690q0 -353 81 -476q58 -87 162 -87q100 0 158 89q86 135 86 495q0 356 -80 479 q-58 88 -163 88q-100 0 -157 -90q-87 -135 -87 -498z" />
<glyph unicode="1" d="M161 1028v135q119 10 170.5 31.5t88 76.5t58.5 167h120v-1438h-162v1028h-275z" />
<glyph unicode="2" d="M54 0q12 158 34.5 242t64.5 148.5t113 130.5q32 29 156 115q124 87 154 111q51 43 75.5 79t37.5 81t13 101q0 129 -65.5 199.5t-168.5 70.5q-100 0 -163.5 -77.5t-70.5 -276.5h-151q-1 110 15 183q23 107 75 179t129 112t180 40q169 0 275.5 -113.5t106.5 -318.5 q0 -85 -21.5 -152.5t-64.5 -126t-109 -112.5q-32 -25 -182 -127q-151 -102 -200 -165q-49 -64 -67 -151h642v-172h-808z" />
<glyph unicode="3" d="M44 440h151q5 -165 71 -239t177 -74q116 0 187.5 74.5t71.5 203.5q0 106 -41 164t-117 80q-53 15 -183 15v148q122 -2 178 17t90.5 73.5t34.5 139.5q0 111 -59 173.5t-153 62.5q-105 0 -168.5 -72.5t-68.5 -242.5h-141q4 144 41.5 247.5t123.5 165.5t212 62 q165 0 264.5 -103t99.5 -283q0 -213 -156 -290q61 -24 97 -55q52 -45 80 -115.5t28 -167.5q0 -108 -32 -193t-82.5 -139t-108.5 -82q-88 -43 -193 -43q-182 0 -287 112t-117 361z" />
<glyph unicode="4" d="M42 350v178l539 910h126v-928h171v-160h-171v-350h-151v350h-514zM178 510h378v643z" />
<glyph unicode="5" d="M57 365h151q9 -115 73 -176.5t165 -61.5q108 0 182 85t74 241q0 150 -73.5 232.5t-179.5 82.5q-141 0 -224 -139l-128 8l98 768h603v-172h-501l-50 -395q50 44 103.5 67t119.5 23q162 0 277.5 -125t115.5 -335q0 -204 -107.5 -352.5t-311.5 -148.5q-163 0 -267 101 t-120 297z" />
<glyph unicode="6" d="M62 641q0 245 51 432q52 187 151 276t238 89q137 0 231.5 -97.5t107.5 -283.5h-144q-19 120 -70.5 170.5t-126.5 50.5q-106 0 -176 -94q-94 -129 -111 -450q91 179 279 179q157 0 264 -120.5t107 -333.5q0 -191 -94.5 -341.5t-291.5 -150.5q-179 0 -285 136 q-130 168 -130 538zM233 446q0 -151 72 -235t168 -84q97 0 168 83.5t71 236.5q0 152 -67 229.5t-172 77.5q-104 0 -172 -78t-68 -230z" />
<glyph unicode="7" d="M62 1221v184h816v-162q-93 -131 -144 -223q-85 -153 -159 -340q-75 -187 -124 -376q-34 -133 -58 -304h-163q21 179 76 363q75 252 194 495q87 176 212 363h-650z" />
<glyph unicode="8" d="M66 405q0 143 54.5 227.5t145.5 131.5q-70 36 -108 92q-52 76 -52 192q0 157 91 273.5t270 116.5q109 0 191 -49.5t126.5 -140t44.5 -196.5q0 -97 -40.5 -170t-111.5 -116q62 -37 94 -69q45 -47 71.5 -116t26.5 -171q0 -206 -112.5 -324.5t-289.5 -118.5 q-176 0 -288.5 118t-112.5 320zM227 398q0 -128 67 -199.5t173 -71.5q107 0 174 71.5t67 199.5q0 126 -67.5 198t-173.5 72q-105 0 -172.5 -72t-67.5 -198zM257 1058q0 -109 57.5 -170t149.5 -61q91 0 152 64t61 166q0 103 -57.5 162t-157.5 59q-95 0 -150 -57t-55 -163z " />
<glyph unicode="9" d="M71 946q0 190 94.5 341t291.5 151q179 0 284 -136q131 -168 131 -538q0 -246 -52 -433t-151 -275.5t-237 -88.5q-137 0 -231.5 97t-107.5 284h144q19 -120 70.5 -170.5t127.5 -50.5q105 0 174 94q99 136 112 450q-28 -55 -54 -83q-39 -44 -96 -70t-130 -26 q-103 0 -189 55t-133.5 160.5t-47.5 238.5zM222 959q0 -153 67.5 -230.5t171.5 -77.5t172 78t68 229q0 152 -71.5 236t-168.5 84t-168 -83.5t-71 -235.5z" />
<glyph unicode=":" horiz-adv-x="467" d="M148 0v221h171v-221h-171zM148 850v221h171v-221h-171z" />
<glyph unicode=";" horiz-adv-x="467" d="M148 0v221h171v-205q0 -143 -40.5 -210.5t-130.5 -100.5v94q28 8 45.5 27t27.5 55.5t13 118.5h-86zM148 850v221h171v-221h-171z" />
<glyph unicode="&#x3c;" horiz-adv-x="981" d="M66 440v156l850 457v-181l-660 -354l660 -354v-180z" />
<glyph unicode="=" horiz-adv-x="981" d="M66 217v172h850v-172h-850zM66 647v172h850v-172h-850z" />
<glyph unicode="&#x3e;" horiz-adv-x="981" d="M66 -16v180l660 354l-660 354v181l850 -457v-156z" />
<glyph unicode="?" d="M125 1010q-3 233 104.5 357t272.5 124q106 0 190 -50t129 -143t45 -204q0 -70 -17 -124t-46 -98q-30 -44 -95 -119t-95 -122q-31 -48 -43.5 -93.5t-12.5 -109.5v-53h-151v57q0 108 32 186t137 202q54 65 74 95q28 42 42 83.5t14 93.5q0 114 -58 176.5t-150 62.5 q-107 0 -161.5 -81.5t-59.5 -239.5h-151zM401 0v209h161v-209h-161z" />
<glyph unicode="@" horiz-adv-x="1704" d="M185 712q0 292 161 516q204 282 553 282q179 0 324 -74.5t220 -220.5t75 -329q0 -130 -36 -238q-37 -109 -91.5 -175.5t-114 -97.5t-122.5 -31q-74 0 -115.5 42.5t-41.5 118.5q0 16 4 40q-46 -113 -108.5 -160.5t-134.5 -47.5q-92 0 -160 82t-68 234q0 138 55 265 t132.5 184t154.5 57q76 0 130 -53.5t62 -147.5l40 168h121l-109 -439q-24 -95 -24 -136q0 -42 21 -64t53 -22q49 0 99.5 38t89.5 122q53 114 53 262q0 154 -59.5 272t-176.5 175.5t-262 57.5q-184 0 -322.5 -87.5t-213 -247.5t-74.5 -353q0 -289 161.5 -460t414.5 -171 q99 0 183 24.5t163 72.5q55 33 129 98l55 -90q-62 -59 -119 -96q-89 -57 -196 -91t-231 -34q-210 0 -364.5 102.5t-238.5 297.5q-72 164 -72 355zM666 641q0 -94 44 -149q32 -41 82 -41q53 0 102 50q68 70 99.5 192t31.5 200q0 44 -16.5 82.5t-47.5 58.5t-62 20 q-44 0 -90 -37q-60 -49 -101.5 -158t-41.5 -218z" />
<glyph unicode="A" horiz-adv-x="1120" d="M23 0l453 1470h185l437 -1470h-173l-130 444h-470l-129 -444h-173zM371 604h379l-190 651z" />
<glyph unicode="B" horiz-adv-x="1120" d="M124 0v1470h515q113 0 191.5 -42t122 -131t43.5 -192q0 -84 -26 -150t-64 -108q-27 -30 -71 -54q218 -98 218 -357q0 -116 -39.5 -209.5t-94.5 -140.5t-145 -72q-53 -14 -150 -14h-500zM285 173h322q76 0 126 13q51 14 82 38.5t48 66.5q27 66 27 144q0 134 -74 191.5 t-209 57.5h-322v-511zM285 844h301q99 0 147 24q49 24 74.5 78.5t25.5 132.5t-30 128.5t-77 70.5q-48 20 -140 20h-301v-454z" />
<glyph unicode="C" horiz-adv-x="1212" d="M65 721q0 270 81 449t206.5 258t276.5 79q118 0 207.5 -42.5t149 -108t91.5 -142.5t44 -180h-158q-21 88 -52 139q-46 76 -117 118t-161 42q-103 0 -190 -56t-143 -176q-72 -151 -72 -370q0 -297 132 -462q105 -132 259 -132q128 0 228 99.5t126 289.5h157 q-11 -97 -32 -166q-30 -95 -82.5 -173.5t-115 -127t-132.5 -72.5t-156 -24q-137 0 -241.5 61t-175 172.5t-100.5 247t-30 277.5z" />
<glyph unicode="D" horiz-adv-x="1212" d="M124 0v1470h473q115 0 202 -38t160 -128.5t115 -222.5q43 -133 43 -326q0 -166 -33.5 -298t-80.5 -215t-102 -134t-130.5 -79.5t-180.5 -28.5h-466zM285 173h285q83 0 147 25q65 25 112.5 77.5t78.5 148.5q46 144 46 318q0 150 -29 257.5t-76.5 172t-112.5 95.5t-166 31 h-285v-1125z" />
<glyph unicode="E" horiz-adv-x="1120" d="M124 0v1470h880v-172h-719v-454h664v-172h-664v-499h731v-173h-892z" />
<glyph unicode="F" horiz-adv-x="1026" d="M144 0v1470h836v-172h-675v-457h593v-173h-593v-668h-161z" />
<glyph unicode="G" horiz-adv-x="1307" d="M82 730q0 254 83.5 432t214.5 261.5t279 83.5q168 0 300 -99q171 -130 204 -384h-161q-16 91 -49 147q-45 76 -120 119t-173 43q-208 0 -311.5 -183t-103.5 -433q0 -237 100.5 -408.5t309.5 -171.5q115 0 201.5 59t129.5 159.5t45 265.5h-377v166h528v-787h-104l-39 190 q-47 -69 -86 -105q-60 -56 -141 -89t-180 -33q-147 0 -265.5 74t-192.5 229q-92 193 -92 464z" />
<glyph unicode="H" horiz-adv-x="1212" d="M124 0v1470h161v-605h642v605h161v-1470h-161v692h-642v-692h-161z" />
<glyph unicode="I" horiz-adv-x="467" d="M153 0v1470h161v-1470h-161z" />
<glyph unicode="J" horiz-adv-x="840" d="M29 356v117h151v-102q0 -128 46.5 -181t133.5 -53q98 0 146.5 57.5t48.5 208.5v1067h161v-1056q0 -167 -48 -267t-125 -142t-176 -42q-111 0 -190 48.5t-119 145.5q-29 73 -29 199z" />
<glyph unicode="K" horiz-adv-x="1120" d="M124 0v1470h161v-716l588 716h225l-502 -593l516 -877h-212l-423 739l-192 -227v-512h-161z" />
<glyph unicode="L" d="M124 0v1470h161v-1297h613v-173h-774z" />
<glyph unicode="M" horiz-adv-x="1399" d="M125 0v1470h232l342 -1243l343 1243h232v-1470h-151v1249l-343 -1249h-161l-343 1249v-1249h-151z" />
<glyph unicode="N" horiz-adv-x="1212" d="M128 0v1470h192l609 -1190v1190h155v-1470h-182l-619 1190v-1190h-155z" />
<glyph unicode="O" horiz-adv-x="1307" d="M66 731q0 263 83 439.5t214.5 256.5t290.5 80q167 0 303.5 -89t210.5 -269.5t74 -404.5q0 -131 -29.5 -263t-91 -236.5t-134.5 -164t-157 -88.5t-185 -29q-158 0 -284 77.5t-202 233.5q-93 188 -93 457zM229 730q0 -222 72 -369q56 -113 145.5 -168.5t207.5 -55.5 q209 0 316.5 161.5t107.5 430.5q0 304 -135 468q-112 136 -289 136t-289 -136q-136 -164 -136 -467z" />
<glyph unicode="P" horiz-adv-x="1120" d="M124 0v1470h507q186 0 286.5 -106t100.5 -319q0 -150 -48.5 -250t-124 -142.5t-214.5 -42.5h-346v-610h-161zM285 783h330q89 0 137 24q49 25 75.5 85t26.5 154q0 130 -58.5 191t-180.5 61h-330v-515z" />
<glyph unicode="Q" horiz-adv-x="1307" d="M66 731q0 263 83 439.5t214.5 256.5t290.5 80q154 0 280 -74t206 -227q102 -195 102 -462q0 -124 -23.5 -238t-65.5 -203q-30 -65 -87 -141l165 -157l-82 -121l-186 177q-75 -51 -138 -71q-84 -27 -179 -27q-158 0 -283.5 77t-202.5 231q-94 189 -94 460zM229 730 q0 -221 72 -369q56 -114 145.5 -169t206.5 -55q94 0 184 42l-131 124l82 124l163 -156q57 77 86 164q41 128 41 295q0 127 -28 244q-19 79 -56 146t-83 112.5t-112 73t-145 27.5q-177 0 -289 -136q-136 -164 -136 -467z" />
<glyph unicode="R" horiz-adv-x="1212" d="M148 0v1470h550q136 0 219.5 -39.5t133.5 -133t50 -222.5q0 -138 -45 -221t-125 -131q72 -32 107.5 -94t38.5 -183l6 -197q3 -90 7 -115q5 -36 18.5 -60t38.5 -41v-33h-200q-10 36 -14 64q-5 37 -7 102l-9 225q-4 97 -25 144t-67 71.5t-144 24.5h-372v-631h-161zM309 796 h361q99 0 140 15q58 21 87 66q40 62 40 176q0 142 -78 205q-49 40 -155 40h-395v-502z" />
<glyph unicode="S" horiz-adv-x="1120" d="M82 477h151q3 -96 29 -157q36 -83 113 -133t190 -50q154 0 232.5 69t78.5 181q0 91 -46 146t-185 98l-215 65q-166 51 -237 141t-71 232q0 202 116.5 320t316.5 118q130 0 234 -54t157.5 -156t57.5 -259h-151q-11 147 -88.5 221t-212.5 74q-144 0 -211.5 -69t-67.5 -174 q0 -78 42.5 -128t162.5 -85l240 -72q189 -56 255 -154t66 -247q0 -133 -53 -231.5t-164 -154t-263 -55.5q-166 0 -277 72t-163 205q-37 95 -37 230v7z" />
<glyph unicode="T" horiz-adv-x="1026" d="M23 1298v172h981v-172h-410v-1298h-161v1298h-410z" />
<glyph unicode="U" horiz-adv-x="1212" d="M132 578v892h161v-908q0 -166 28 -248q29 -82 102 -129.5t180 -47.5q150 0 233 96t83 329v908h162v-892q0 -202 -51 -335q-52 -133 -165.5 -206.5t-271.5 -73.5q-103 0 -183 29.5t-135 84.5t-84 119t-46 165q-13 76 -13 217z" />
<glyph unicode="V" horiz-adv-x="1120" d="M34 1470h181l345 -1252l343 1252h182l-439 -1470h-173z" />
<glyph unicode="W" horiz-adv-x="1585" d="M27 1470h177l227 -1195l272 1195h177l272 -1195l228 1195h179l-317 -1470h-171l-278 1218l-280 -1218h-171z" />
<glyph unicode="X" horiz-adv-x="1120" d="M31 0l428 754l-405 716h200l306 -563l306 563h199l-404 -716l428 -754h-200l-329 604l-329 -604h-200z" />
<glyph unicode="Y" horiz-adv-x="1120" d="M25 1470h194l343 -698l344 698h190l-455 -877v-593h-161v593z" />
<glyph unicode="Z" horiz-adv-x="1026" d="M39 0v163l739 1135h-685v172h895v-172l-743 -1125h743v-173h-949z" />
<glyph unicode="[" horiz-adv-x="467" d="M110 -401v1871h314v-147h-173v-1577h173v-147h-314z" />
<glyph unicode="\" horiz-adv-x="467" d="M0 1469h125l382 -1469h-125z" />
<glyph unicode="]" horiz-adv-x="467" d="M43 -254h173v1577h-173v147h314v-1871h-314v147z" />
<glyph unicode="^" horiz-adv-x="788" d="M42 607l288 863h126l290 -863h-135l-217 661l-218 -661h-134z" />
<glyph unicode="_" d="M0 -154h934v-102h-934v102z" />
<glyph unicode="`" horiz-adv-x="559" d="M61 1507h183l149 -295h-112z" />
<glyph unicode="a" d="M72 281q0 79 24 142t66 106q29 29 75 52t99 31l238 36q43 6 61 30q23 31 23 91q0 95 -48 141t-149 46q-100 0 -150.5 -48.5t-58.5 -157.5h-141q5 111 35 178q39 87 119.5 131.5t200.5 44.5q91 0 155.5 -23t102 -60t59 -92.5t21.5 -129.5v-596q0 -49 13 -65.5t35 -16.5 q16 0 49 8v-129q-50 -14 -85 -14q-74 0 -110 34.5t-43 120.5q-68 -88 -141.5 -131t-169.5 -43q-122 0 -201 84t-79 230zM224 296q0 -85 44.5 -133.5t119.5 -48.5q104 0 185.5 73t81.5 186v172q-23 -20 -49 -28q-38 -13 -143 -31q-80 -14 -108 -22q-43 -14 -71 -35t-44 -52 t-16 -81z" />
<glyph unicode="b" d="M98 0v1470h149v-536q45 80 98 118q72 52 164 52q83 0 154 -41.5t118.5 -117.5t69 -178t21.5 -209q0 -297 -131 -465q-99 -126 -249 -126q-96 0 -168 54q-51 38 -89 116v-137h-137zM232 537q0 -220 83 -328q62 -81 164 -81q98 0 160 82q81 110 81 338q0 216 -68.5 305.5 t-164.5 89.5q-104 0 -179.5 -96t-75.5 -310z" />
<glyph unicode="c" horiz-adv-x="840" d="M59 518q0 245 101 415.5t297 170.5q141 0 235.5 -98.5t108.5 -298.5h-141q-15 125 -69 180.5t-134 55.5q-101 0 -163 -84q-83 -112 -83 -350q0 -121 24 -202.5t76 -130t128 -48.5q81 0 141 59t80 188h141q-20 -205 -121 -306.5t-249 -101.5q-103 0 -187.5 56 t-134.5 187.5t-50 307.5z" />
<glyph unicode="d" d="M51 512q0 250 97.5 421t277.5 171q65 0 114 -24t83 -64q24 -27 53 -82v536h149v-1470h-134v134q-46 -63 -79.5 -94.5t-83 -52t-109.5 -20.5q-141 0 -237 108q-131 146 -131 437zM203 524q0 -217 80 -325q57 -76 156 -76q107 0 168 81q82 109 82 345q0 178 -62.5 288 t-177.5 110q-62 0 -118 -39.5t-92 -137t-36 -246.5z" />
<glyph unicode="e" d="M66 530q0 279 123.5 426.5t288.5 147.5q93 0 177 -46.5t134.5 -131.5t69.5 -206q10 -66 10 -220v-29h-642q5 -178 75 -260.5t174 -82.5q83 0 141 47t96 167h146q-24 -114 -61 -179q-51 -90 -136.5 -143t-189.5 -53q-101 0 -179 45.5t-129 123.5t-74.5 182.5t-23.5 211.5z M227 618h491q-4 106 -33.5 179t-85.5 109.5t-121 36.5q-95 0 -167 -81t-84 -244z" />
<glyph unicode="f" horiz-adv-x="467" d="M24 929v142h121v166q0 87 20 137t72.5 83t131.5 33q34 0 71 -6v-164q-38 5 -57 5q-45 0 -67 -25.5t-22 -100.5v-128h146v-142h-146v-929h-149v929h-121z" />
<glyph unicode="g" d="M68 508q0 125 29.5 242.5t89.5 200.5q46 63 113.5 101t145.5 38q90 0 163 -52q53 -37 99 -111v144h136v-983q0 -148 -21 -242q-21 -95 -71 -161t-130 -102t-175 -36q-88 0 -157 29.5t-107.5 74.5t-58.5 105q-16 43 -22 111h149q9 -54 30 -87t65.5 -52.5t103.5 -19.5 q66 0 116.5 24t79.5 65t40 88q16 66 16 189v75q-55 -89 -119 -127.5t-151 -38.5q-150 0 -242 114q-122 150 -122 411zM220 522q0 -208 65 -293t164 -85q132 0 194 116.5t62 289.5q0 199 -71.5 289.5t-169.5 90.5q-63 0 -118 -37t-90.5 -130t-35.5 -241z" />
<glyph unicode="h" d="M111 0v1470h149v-543q36 59 63.5 88t60 49t69 30t79.5 10q89 0 159 -45.5t101.5 -128t31.5 -243.5v-687h-149v676q0 107 -16 158q-17 52 -58.5 80.5t-100.5 28.5q-98 0 -169 -85.5t-71 -269.5v-588h-149z" />
<glyph unicode="i" horiz-adv-x="373" d="M112 0v1071h149v-1071h-149zM112 1262v208h149v-208h-149z" />
<glyph unicode="j" horiz-adv-x="373" d="M-27 -262h29q66 0 88 23t22 100v1210h149v-1221q0 -148 -57 -210t-173 -62q-29 0 -58 6v154zM112 1262v208h149v-208h-149z" />
<glyph unicode="k" horiz-adv-x="840" d="M105 0v1470h142v-854l379 455h188l-336 -400l356 -671h-185l-278 540l-124 -137v-403h-142z" />
<glyph unicode="l" horiz-adv-x="373" d="M112 0v1470h149v-1470h-149z" />
<glyph unicode="m" horiz-adv-x="1399" d="M109 0v1071h149v-148q37 62 65 92q38 42 86 65.5t103 23.5q88 0 154 -54q48 -40 84 -127q61 100 121 140.5t139 40.5q74 0 132.5 -32.5t91.5 -80.5t45 -105t12 -173v-713h-154v751q0 97 -42.5 144.5t-109.5 47.5q-85 0 -148.5 -76t-63.5 -226v-641h-149v742 q0 110 -38 155.5t-103 45.5q-85 0 -155 -84.5t-70 -227.5v-631h-149z" />
<glyph unicode="n" d="M110 0v1071h141v-151q50 84 108 126q80 58 178 58q61 0 111.5 -22t87.5 -61t56 -82t27 -108q6 -49 6 -144v-687h-149v676q0 109 -18 160t-60.5 79t-97.5 28q-59 0 -106.5 -29t-76.5 -73t-46 -121q-12 -48 -12 -132v-588h-149z" />
<glyph unicode="o" d="M59 536q0 287 128 440q107 128 280 128q174 0 280 -128q128 -153 128 -440q0 -257 -106.5 -413t-301.5 -156q-80 0 -143.5 27t-111.5 73q-36 35 -72 97.5t-55 141.5q-26 110 -26 230zM211 536q0 -214 85 -323q66 -85 171 -85t171 85q86 110 86 323t-86 322 q-66 85 -171 85t-171 -85q-85 -109 -85 -322z" />
<glyph unicode="p" d="M104 -422v1493h149v-132q58 83 112 119q71 46 153 46q89 0 173.5 -59t133.5 -181t49 -331q0 -192 -48.5 -319t-135 -187t-189.5 -60q-87 0 -151 43.5t-97 117.5v-550h-149zM250 532q0 -220 79 -325q59 -79 155 -79q98 0 159 80q80 105 80 324q0 224 -80 330 q-61 81 -159 81q-96 0 -154 -79q-80 -107 -80 -332z" />
<glyph unicode="q" d="M50 518q0 143 31.5 259.5t90.5 194.5q45 61 108.5 96.5t141.5 35.5q88 0 152 -46.5t110 -135.5v149h141v-1498h-149v550q-92 -156 -261 -156q-90 0 -158 42t-115.5 118t-69.5 178.5t-22 212.5zM202 520q0 -217 66.5 -304.5t167.5 -87.5q104 0 175 92.5t71 311.5 q0 226 -79 332q-60 79 -161 79q-99 0 -159 -80q-81 -111 -81 -343z" />
<glyph unicode="r" horiz-adv-x="559" d="M112 0v1071h149v-177q39 108 102.5 159t127.5 51q19 0 49 -6v-190q-40 5 -58 5q-58 0 -115 -39.5t-86 -111.5q-20 -50 -20 -147v-615h-149z" />
<glyph unicode="s" horiz-adv-x="840" d="M59 338h141q8 -114 65.5 -168.5t164.5 -54.5q101 0 155.5 49t54.5 123q0 51 -34.5 88.5t-132.5 66.5l-132 39q-142 42 -198 111t-56 182q0 90 41 169t116 120t173 41q150 0 241.5 -89.5t95.5 -246.5h-141q-9 96 -59.5 142t-142.5 46q-89 0 -136 -43t-47 -112 q0 -53 33.5 -90.5t118.5 -62.5l170 -50q129 -38 180 -102.5t51 -172.5q0 -138 -86 -247t-271 -109q-169 0 -263 92t-102 279z" />
<glyph unicode="t" horiz-adv-x="467" d="M20 924v147h119v299h149v-299h140v-147h-140v-699q0 -46 19.5 -66.5t65.5 -20.5q24 0 55 4v-143q-45 -16 -107 -16q-91 0 -136.5 51t-45.5 182v708h-119z" />
<glyph unicode="u" d="M113 342v729h149v-711q0 -134 42.5 -183t125.5 -49q52 0 93.5 17.5t71.5 49.5q22 24 40 66.5t28 85.5q10 44 10 134v590h149v-1071h-141v158q-45 -95 -113 -143t-180 -48q-102 0 -164 45.5t-86.5 116.5t-24.5 213z" />
<glyph unicode="v" horiz-adv-x="840" d="M14 1071h171l231 -872l249 872h161l-334 -1071h-157z" />
<glyph unicode="w" horiz-adv-x="1212" d="M23 1071h161l169 -841l172 841h165l173 -841l179 841h147l-254 -1071h-154l-179 830l-173 -830h-153z" />
<glyph unicode="x" horiz-adv-x="840" d="M11 0l307 549l-292 522h190l208 -373l198 373h182l-290 -510l315 -561h-190l-228 414l-214 -414h-186z" />
<glyph unicode="y" horiz-adv-x="840" d="M18 1071h166l235 -879l236 879h166l-336 -1114q-74 -244 -127 -319t-158 -75q-45 0 -101 15v166q48 -21 88 -21q38 0 64.5 21.5t43.5 75.5l49 151z" />
<glyph unicode="z" horiz-adv-x="840" d="M52 0v142l521 768h-482v161h680v-147l-517 -763h533v-161h-735z" />
<glyph unicode="{" horiz-adv-x="561" d="M1 481v116q62 11 105.5 35t70.5 62.5t39 92.5q9 40 9 116v164q0 150 28 227q28 78 105 133t203 69v-114q-69 -11 -118 -51t-67 -107q-19 -67 -19 -179v-111q0 -113 -14 -180q-15 -67 -48.5 -111.5t-76.5 -69t-104 -34.5q53 -8 91.5 -27t69.5 -52t48.5 -73.5t26.5 -110.5 q7 -45 7 -131v-112q0 -112 18 -177q18 -66 65.5 -107t120.5 -52v-114q-125 14 -201.5 67.5t-105.5 131.5q-29 79 -29 230v163q0 90 -13.5 137t-44.5 83.5t-69.5 56t-96.5 29.5z" />
<glyph unicode="|" horiz-adv-x="436" d="M148 -512v2048h141v-2048h-141z" />
<glyph unicode="}" horiz-adv-x="561" d="M1 -303q69 10 117.5 49.5t67.5 106.5t19 180v112q0 113 14 179q15 67 48.5 112t76 69t104.5 34q-64 11 -111.5 39t-76.5 73.5t-44 122.5q-11 57 -11 160v111q0 113 -18 178q-18 66 -66 107t-120 52v114q124 -14 200.5 -67.5t105.5 -132.5q30 -79 30 -229v-164 q0 -90 13 -137q14 -47 45.5 -83.5t69 -55.5t96.5 -30v-116q-82 -14 -133 -53t-71 -97.5t-20 -155.5v-163q0 -150 -28 -227q-28 -78 -105 -133t-203 -69v114z" />
<glyph unicode="~" horiz-adv-x="981" d="M2 320q15 109 33 162q25 75 61 123t75 67.5t98 19.5q58 0 128 -33l182 -88q95 -45 151 -45q41 0 75 35q47 48 78 164h95q-41 -224 -118 -311q-57 -64 -140 -64q-35 0 -74 11q-40 12 -108 44l-167 79q-66 31 -115 31q-40 0 -69 -19t-54 -67q-19 -37 -36 -109h-95z" />
<glyph unicode="&#xa1;" horiz-adv-x="559" d="M36 1507h133l110 -196l111 196h133l-166 -295h-155z" />
<glyph unicode="&#xa2;" horiz-adv-x="559" d="M21 1507h82q16 -74 49 -111q44 -48 127 -48q73 0 116 36.5t61 122.5h82q-15 -144 -84 -213t-174 -69q-104 0 -173 69t-86 213z" />
<glyph unicode="&#xa3;" d="M47 649v105h133q-89 167 -89 299q0 167 110 276t283 109q114 0 203.5 -49t134.5 -146.5t45 -242.5h-151q0 145 -60.5 211.5t-170.5 66.5q-121 0 -187 -85q-48 -61 -48 -136q0 -45 16.5 -102.5t79.5 -200.5h269v-105h-232q16 -76 16 -123q0 -75 -28.5 -151.5t-76.5 -138.5 q-34 -46 -99 -103q70 42 121 59t100 17q59 0 154 -34q96 -35 131 -35q31 0 60 13.5t67 47.5l68 -135q-54 -52 -103 -75.5t-102 -23.5q-63 0 -157 37t-127 45t-67 8q-50 0 -97 -18.5t-107 -62.5l-81 143q63 53 98 98q48 62 77.5 136t29.5 142q0 62 -32 154h-181z" />
<glyph unicode="&#xa4;" d="M70 315l115 138q-28 38 -49.5 105t-21.5 141q0 76 20.5 145.5t50.5 115.5l-115 135l78 95l113 -138q35 37 90 61t113 24q61 0 118.5 -24t92.5 -63l112 140l78 -95l-115 -140q33 -45 54 -113t21 -144t-22 -142t-53 -103l115 -138l-78 -95l-112 136q-34 -36 -90.5 -61 t-116.5 -25q-116 0 -207 88l-113 -140zM227 704q0 -117 68.5 -204.5t172.5 -87.5q94 0 167 82t73 211q0 122 -70 207.5t-170 85.5q-61 0 -118.5 -37.5t-90 -107.5t-32.5 -149z" />
<glyph unicode="&#xa5;" horiz-adv-x="1120" d="M23 0l453 1470h185l437 -1470h-50q-97 -84 -97 -159q0 -42 24.5 -67.5t63.5 -25.5q44 0 85 29v-116q-64 -36 -128 -36q-67 0 -113.5 50t-46.5 134q0 109 88 192l-129 443h-470l-129 -444h-173zM371 604h379l-190 651z" />
<glyph unicode="&#xa6;" horiz-adv-x="436" d="M148 -256v512h140v-512h-140zM148 768v512h140v-512h-140z" />
<glyph unicode="&#xa7;" d="M72 640q0 106 40 178t131 136q-45 59 -63.5 108t-18.5 106q0 90 38.5 171t108.5 124.5t160 43.5q134 0 218 -91.5t88 -282.5h-141q-6 126 -49.5 176.5t-114.5 50.5q-67 0 -112 -48t-45 -123q0 -53 32 -97q42 -60 148 -133l155 -106q119 -82 167 -169t48 -189 q0 -101 -40 -176t-132 -149q50 -66 68.5 -117.5t18.5 -114.5q0 -150 -90.5 -242.5t-228.5 -92.5q-135 0 -223 88t-98 299h152q6 -125 52 -176.5t122 -51.5q75 0 119 45t44 122q0 51 -19.5 87.5t-79.5 85.5l-324 265q-71 57 -101 120t-30 153zM213 677q0 -57 21.5 -102.5 t55.5 -72.5l318 -250q112 84 112 208q0 120 -101 195l-292 219q-57 -37 -85.5 -83.5t-28.5 -113.5z" />
<glyph unicode="&#xa8;" horiz-adv-x="559" d="M70 1262v208h151v-208h-151zM339 1262v208h151v-208h-151z" />
<glyph unicode="&#xa9;" horiz-adv-x="1237" d="M15 737q0 144 42 270q43 127 109 216q67 89 138 140q72 52 151 79q79 28 163 28q133 0 246 -64t194 -168t121.5 -237t40.5 -264q0 -146 -47 -286.5t-135.5 -242t-194 -155t-225.5 -53.5q-144 0 -282.5 85.5t-229.5 263t-91 388.5zM102 737q0 -183 78.5 -336.5t197 -226 t240.5 -72.5q102 0 188.5 44t156.5 120t120 199t50 272q0 181 -78 334.5t-196.5 226t-240.5 72.5q-86 0 -165 -33t-136 -85q-58 -53 -104 -124q-47 -72 -79 -171q-32 -100 -32 -220zM306 743q0 179 86 303.5t233 124.5q114 0 192.5 -75.5t91.5 -223.5h-99q-10 86 -65 142 q-43 43 -112 43q-88 0 -139 -65q-71 -90 -71 -253q0 -160 62 -237.5t150 -77.5q66 0 110.5 38t68.5 133h99q-20 -140 -97 -212.5t-187 -72.5q-153 0 -238 126.5t-85 306.5z" />
<glyph unicode="&#xaa;" horiz-adv-x="1120" d="M82 477h151q3 -96 29 -157q36 -83 113 -133t190 -50q154 0 232.5 69t78.5 181q0 91 -46 146t-185 98l-215 65q-166 51 -237 141t-71 232q0 202 116.5 320t316.5 118q130 0 234 -54t157.5 -156t57.5 -259h-151q-11 147 -88.5 221t-212.5 74q-144 0 -211.5 -69t-67.5 -174 q0 -78 42.5 -128t162.5 -85l240 -72q189 -56 255 -154t66 -247q0 -133 -53 -231.5t-164 -154t-263 -55.5q-166 0 -277 72t-163 205q-38 98 -37 237zM482 -391q41 11 62 42t20 91h-74v180h147v-180q0 -96 -45 -149t-110 -55v71z" />
<glyph unicode="&#xab;" d="M163 477v189l264 249v-178l-173 -166l173 -165v-179zM507 477v189l264 249v-178l-173 -166l173 -165v-179z" />
<glyph unicode="&#xac;" horiz-adv-x="981" d="M63 654v169h855v-600h-138v431h-717z" />
<glyph unicode="&#xad;" horiz-adv-x="559" d="M74 479v185h411v-185h-411z" />
<glyph unicode="&#xae;" horiz-adv-x="1237" d="M17 737q0 144 42 270.5t109 215.5t138 140.5t149.5 79t162.5 27.5q133 0 246 -64t194 -168.5t121.5 -237t40.5 -263.5q0 -146 -47 -287q-48 -141 -136.5 -242.5t-193.5 -154.5t-225 -53q-143 0 -281 85t-229 262.5t-91 389.5zM101 737q0 -182 78 -335.5t197 -226.5 t242 -73q76 0 147.5 26.5t132 74t114 123.5t88.5 181t35 230q0 180 -78 333.5t-197.5 226.5t-241.5 73q-108 0 -209 -53q-75 -40 -142.5 -114.5t-116.5 -195t-49 -270.5zM375 337v806h231q86 0 131 -10q46 -11 79 -38.5t53 -75t20 -102.5q0 -61 -21 -107.5t-53 -68.5 t-87 -30q52 -11 87.5 -42.5t48.5 -75.5q14 -45 17 -127t12 -129h-117q-4 28 -5 99q-2 72 -11 108q-10 36 -32.5 63t-50 37t-94.5 10h-92v-317h-116zM491 754h105q100 0 139.5 36.5t39.5 117.5q0 51 -20.5 83.5t-53.5 42.5q-33 11 -111 11h-99v-291z" />
<glyph unicode="&#xaf;" horiz-adv-x="559" d="M17 1294v119h525v-119h-525z" />
<glyph unicode="&#xb0;" horiz-adv-x="819" d="M162 1129q0 128 74 215.5t175 87.5q102 0 174.5 -87t72.5 -214q0 -134 -76 -219t-173 -85q-60 0 -117 35t-93.5 108t-36.5 159zM251 1130q0 -85 49 -139.5t110 -54.5t109.5 54.5t48.5 139.5q0 84 -48.5 138t-109.5 54t-110 -54t-49 -138z" />
<glyph unicode="&#xb1;" horiz-adv-x="1124" d="M134 0v161h855v-161h-855zM134 557v159h358v329h140v-329h357v-159h-357v-318h-140v318h-358z" />
<glyph unicode="&#xb2;" horiz-adv-x="559" d="M18 562q8 106 22 158t42 93.5t76 83.5q23 19 137 95q68 45 90 81q23 37 23 89q0 67 -35 104t-91 37q-59 0 -95 -46t-36 -159h-115q2 81 8 114q10 59 41 108.5t83 77.5t120 28q108 0 175 -70.5t67 -195.5q0 -72 -25.5 -123.5t-76.5 -98.5q-27 -23 -137 -95 q-68 -44 -101 -80q-23 -26 -42 -71h381v-130h-511z" />
<glyph unicode="&#xb3;" horiz-adv-x="559" d="M13 848h116q2 -102 37.5 -142t99.5 -40q65 0 104 39.5t39 106.5q0 59 -24 88.5t-70 40.5q-27 6 -111 6v116q78 -1 110 7.5t52 36.5t20 75q0 56 -31.5 88.5t-83.5 32.5q-60 0 -94 -40t-36 -143h-110q2 93 20 147q25 76 81 117.5t139 41.5q104 0 167 -64t63 -174 q0 -60 -20 -104q-14 -29 -52 -63q54 -36 73 -70q28 -54 28 -128q0 -128 -73 -204t-189 -76q-90 0 -146 39.5t-84 114.5q-21 57 -25 151z" />
<glyph unicode="&#xb4;" horiz-adv-x="559" d="M165 1212l149 295h183l-220 -295h-112z" />
<glyph unicode="&#xb5;" horiz-adv-x="1180" d="M71 -422l266 1491h152l-132 -745q-8 -45 -8 -72q0 -61 32 -92.5t96 -31.5q67 0 133 49.5t112.5 141t59.5 165.5l105 585h150l-188 -1069h-142l35 180q-24 -48 -78 -103t-108 -79.5t-105 -24.5q-45 0 -84 21t-60 59l-84 -475h-152z" />
<glyph unicode="&#xb6;" horiz-adv-x="901" d="M-53 987q0 110 31.5 203t75.5 146q32 39 86 72t106.5 47.5t130.5 14.5h519v-117h-120v-1716h-129v1716h-202v-1716h-128v889q-84 6 -141.5 29.5t-112 84t-85.5 153t-31 194.5z" />
<glyph unicode="&#xb8;" horiz-adv-x="559" d="M89 -427l29 81q70 -31 108 -31q46 0 71 23t25 62q0 36 -22.5 58.5t-56.5 22.5q-28 0 -67 -17l-29 41l108 178h79l-79 -128q32 5 54 5q64 0 103 -40.5t39 -110.5q0 -52 -24.5 -96.5t-70 -67.5t-104.5 -23q-37 0 -73 9t-90 34z" />
<glyph unicode="&#xb9;" horiz-adv-x="559" d="M84 1158v108q81 6 110 17.5t49 42t34 100.5h94v-864h-122v596h-165z" />
<glyph unicode="&#xba;" horiz-adv-x="840" d="M59 338h141q8 -114 65.5 -168.5t164.5 -54.5q101 0 155.5 49t54.5 123q0 51 -34.5 88.5t-132.5 66.5l-132 39q-142 42 -198 111t-56 182q0 90 41 169t116 120t173 41q150 0 241.5 -89.5t95.5 -246.5h-141q-9 96 -59.5 142t-142.5 46q-89 0 -136 -43t-47 -112 q0 -53 33.5 -90.5t118.5 -62.5l170 -50q129 -38 180 -102.5t51 -172.5q0 -138 -86 -247t-271 -109q-169 0 -263 92t-102 279zM338 -392q41 11 62 42t20 91h-74v180h147v-180q0 -96 -45 -149t-110 -55v71z" />
<glyph unicode="&#xbb;" d="M163 227v179l173 165l-173 166v178l264 -249v-189zM507 227v179l173 165l-173 166v178l264 -249v-189z" />
<glyph unicode="&#xbc;" horiz-adv-x="1401" d="M50 1158v108q81 6 110 17.5t49 42t34 100.5h94v-864h-122v596h-165zM271 -38l635 1469h111l-636 -1469h-110zM837 203v124l329 537h95v-538h102v-123h-102v-203h-116v203h-308zM955 326h190v312z" />
<glyph unicode="&#xbd;" horiz-adv-x="1401" d="M13 1158v108q81 6 110 17.5t49 42t34 100.5h94v-864h-122v596h-165zM208 -38l636 1469h111l-636 -1469h-111zM805 0q9 110 22 158.5t39.5 89t75.5 83.5q27 23 140 99q69 46 91 82q23 36 23 88q0 67 -35.5 104t-90.5 37q-60 0 -95.5 -45t-35.5 -160h-115q2 113 20 165 q26 75 86.5 119t145.5 44q108 0 174.5 -70.5t66.5 -194.5q0 -73 -25 -124.5t-77 -97.5q-26 -24 -137 -96q-68 -44 -100 -80q-23 -26 -43 -71h381v-130h-511z" />
<glyph unicode="&#xbe;" horiz-adv-x="1401" d="M4 848h116q2 -102 37.5 -142t99.5 -40q65 0 104 39.5t39 106.5q0 59 -24 88.5t-70 40.5q-27 6 -111 6v116q78 -1 110 7.5t52 36.5t20 75q0 56 -31.5 88.5t-83.5 32.5q-60 0 -94 -40t-36 -143h-110q2 93 20 147q25 76 81 117.5t139 41.5q104 0 167 -64t63 -174 q0 -60 -20 -104q-14 -29 -52 -63q54 -36 73 -70q28 -54 28 -128q0 -128 -73 -204t-189 -76q-90 0 -146 39.5t-84 114.5q-21 57 -25 151zM350 -38l635 1469h111l-636 -1469h-110zM862 203v124l330 537h94v-538h103v-123h-103v-203h-116v203h-308zM981 326h189v312z" />
<glyph unicode="&#xbf;" horiz-adv-x="840" d="M52 0v142l521 768h-482v161h680v-147l-517 -763h533v-161h-735zM354 1261v208h151v-208h-151z" />
<glyph unicode="&#xc0;" horiz-adv-x="1213" d="M148 0v1470h550q136 0 219.5 -39.5t133.5 -133t50 -222.5q0 -138 -45 -221t-125 -131q72 -32 107.5 -94t38.5 -183l6 -197q3 -90 7 -115q5 -36 18.5 -60t38.5 -41v-33h-200q-10 36 -14 64q-5 37 -7 102l-9 225q-4 97 -25 144t-67 71.5t-144 24.5h-372v-631h-161zM309 796 h361q99 0 140 15q58 21 87 66q40 62 40 176q0 142 -78 205q-49 40 -155 40h-395v-502zM479 1568l149 295h183l-220 -295h-112z" />
<glyph unicode="&#xc1;" horiz-adv-x="1120" d="M23 0l453 1470h185l437 -1470h-173l-130 444h-470l-129 -444h-173zM371 604h379l-190 651zM461 1595l149 295h183l-220 -295h-112z" />
<glyph unicode="&#xc2;" horiz-adv-x="1120" d="M23 0l453 1470h185l437 -1470h-173l-130 444h-470l-129 -444h-173zM327 1595l167 295h156l167 -295h-134l-111 198l-111 -198h-134zM371 604h379l-190 651z" />
<glyph unicode="&#xc3;" horiz-adv-x="1120" d="M23 0l453 1470h185l437 -1470h-173l-130 444h-470l-129 -444h-173zM302 1862h82q16 -74 49 -111q44 -48 127 -48q73 0 116 36.5t61 122.5h82q-15 -144 -84 -213t-174 -69q-104 0 -173 69t-86 213zM371 604h379l-190 651z" />
<glyph unicode="&#xc4;" horiz-adv-x="1120" d="M23 0l453 1470h185l437 -1470h-173l-130 444h-470l-129 -444h-173zM362 1619v208h151v-208h-151zM371 604h379l-190 651zM631 1619v208h151v-208h-151z" />
<glyph unicode="&#xc5;" d="M124 0v1470h161v-1297h613v-173h-774zM148 1568l149 295h183l-220 -295h-112z" />
<glyph unicode="&#xc6;" horiz-adv-x="1213" d="M65 721q0 270 81 449t206.5 258t276.5 79q118 0 207.5 -42.5t149 -108t91.5 -142.5t44 -180h-158q-21 88 -52 139q-46 76 -117 118t-161 42q-103 0 -190 -56t-143 -176q-72 -151 -72 -370q0 -297 132 -462q105 -132 259 -132q128 0 228 99.5t126 289.5h157 q-11 -97 -32 -166q-30 -95 -82.5 -173.5t-115 -127t-132.5 -72.5t-156 -24q-137 0 -241.5 61t-175 172.5t-100.5 247t-30 277.5zM511 1592l149 295h183l-220 -295h-112z" />
<glyph unicode="&#xc7;" horiz-adv-x="1212" d="M65 721q0 270 81 449t206.5 258t276.5 79q118 0 207.5 -42.5t149 -108t91.5 -142.5t44 -180h-158q-21 88 -52 139q-46 76 -117 118t-161 42q-103 0 -190 -56t-143 -176q-72 -151 -72 -370q0 -297 132 -462q105 -132 259 -132q128 0 228 99.5t126 289.5h157 q-16 -139 -59 -236t-106.5 -169t-139.5 -110.5t-166 -45.5l-63 -102q31 5 53 5q65 0 103.5 -40.5t38.5 -110.5q0 -52 -24 -96.5t-70 -67.5t-105 -23q-37 0 -73 9t-90 34l30 81q69 -31 108 -31q46 0 71 23t25 63q0 35 -22.5 57.5t-56.5 22.5q-29 0 -67 -17l-29 41l91 151 q-69 0 -150.5 32t-143 90.5t-108 139.5t-70.5 168q-42 152 -42 327z" />
<glyph unicode="&#xc8;" horiz-adv-x="1213" d="M65 721q0 270 81 449t206.5 258t276.5 79q118 0 207.5 -42.5t149 -108t91.5 -142.5t44 -180h-158q-21 88 -52 139q-46 76 -117 118t-161 42q-103 0 -190 -56t-143 -176q-72 -151 -72 -370q0 -297 132 -462q105 -132 259 -132q128 0 228 99.5t126 289.5h157 q-11 -97 -32 -166q-30 -95 -82.5 -173.5t-115 -127t-132.5 -72.5t-156 -24q-137 0 -241.5 61t-175 172.5t-100.5 247t-30 277.5zM378 1887h133l110 -196l111 196h133l-166 -295h-155z" />
<glyph unicode="&#xc9;" horiz-adv-x="1120" d="M124 0v1470h880v-172h-719v-454h664v-172h-664v-499h731v-173h-892zM474 1595l149 295h183l-220 -295h-112z" />
<glyph unicode="&#xca;" horiz-adv-x="1120" d="M124 0v1470h880v-172h-719v-454h664v-172h-664v-499h731v-173h-101q-97 -77 -97 -162q0 -39 25 -64.5t62 -25.5q51 0 112 46v-119q-80 -50 -153 -50q-68 0 -114 50t-46 134q0 54 19 96.5t67 94.5h-666z" />
<glyph unicode="&#xcb;" horiz-adv-x="1120" d="M124 0v1470h880v-172h-719v-454h664v-172h-664v-499h731v-173h-892zM374 1619v208h151v-208h-151zM643 1619v208h151v-208h-151z" />
<glyph unicode="&#xcc;" horiz-adv-x="1120" d="M124 0v1470h880v-172h-719v-454h664v-172h-664v-499h731v-173h-892zM332 1863h133l110 -196l111 196h133l-166 -295h-155z" />
<glyph unicode="&#xcd;" horiz-adv-x="467" d="M135 1595l149 295h183l-220 -295h-112zM153 0v1470h161v-1470h-161z" />
<glyph unicode="&#xce;" horiz-adv-x="467" d="M4 1595l167 295h156l167 -295h-134l-111 198l-111 -198h-134zM153 0v1470h161v-1470h-161z" />
<glyph unicode="&#xcf;" horiz-adv-x="1213" d="M124 0v1470h473q115 0 202 -38t160 -128.5t115 -222.5q43 -133 43 -326q0 -166 -33.5 -298t-80.5 -215t-102 -134t-130.5 -79.5t-180.5 -28.5h-466zM260 1863h133l110 -196l111 196h133l-166 -295h-155zM285 173h285q83 0 147 25q65 25 112.5 77.5t78.5 148.5 q46 144 46 318q0 150 -29 257.5t-76.5 172t-112.5 95.5t-166 31h-285v-1125z" />
<glyph unicode="&#xd0;" horiz-adv-x="1212" d="M15 715v122h109v633h473q115 0 202 -38t160 -128.5t115 -222.5q43 -133 43 -326q0 -166 -33.5 -298t-80 -214.5t-102 -134t-131 -80t-180.5 -28.5h-466v715h-109zM285 173h285q83 0 147 25q65 25 112.5 77.5t78.5 148.5q46 144 46 318q0 150 -29 257.5t-76.5 172 t-112.5 95.5t-166 31h-285v-461h346v-122h-346v-542z" />
<glyph unicode="&#xd1;" horiz-adv-x="1213" d="M128 0v1470h192l609 -1190v1190h155v-1470h-182l-619 1190v-1190h-155zM492 1568l149 295h183l-220 -295h-112z" />
<glyph unicode="&#xd2;" horiz-adv-x="1213" d="M128 0v1470h192l609 -1190v1190h155v-1470h-182l-619 1190v-1190h-155zM363 1863h133l110 -196l111 196h133l-166 -295h-155z" />
<glyph unicode="&#xd3;" horiz-adv-x="1306" d="M66 731q0 263 83 439.5t214.5 256.5t290.5 80q167 0 303.5 -89t210.5 -269.5t74 -404.5q0 -131 -29.5 -263t-91 -236.5t-134.5 -164t-157 -88.5t-185 -29q-158 0 -284 77.5t-202 233.5q-93 188 -93 457zM229 730q0 -222 72 -369q56 -113 145.5 -168.5t207.5 -55.5 q209 0 316.5 161.5t107.5 430.5q0 304 -135 468q-112 136 -289 136t-289 -136q-136 -164 -136 -467zM556 1594l149 295h183l-220 -295h-112z" />
<glyph unicode="&#xd4;" horiz-adv-x="1306" d="M66 731q0 263 83 439.5t214.5 256.5t290.5 80q167 0 303.5 -89t210.5 -269.5t74 -404.5q0 -131 -29.5 -263t-91 -236.5t-134.5 -164t-157 -88.5t-185 -29q-158 0 -284 77.5t-202 233.5q-93 188 -93 457zM229 730q0 -222 72 -369q56 -113 145.5 -168.5t207.5 -55.5 q209 0 316.5 161.5t107.5 430.5q0 304 -135 468q-112 136 -289 136t-289 -136q-136 -164 -136 -467zM421 1594l167 295h156l167 -295h-134l-111 198l-111 -198h-134z" />
<glyph unicode="&#xd5;" horiz-adv-x="1306" d="M66 731q0 263 83 439.5t214.5 256.5t290.5 80q167 0 303.5 -89t210.5 -269.5t74 -404.5q0 -131 -29.5 -263t-91 -236.5t-134.5 -164t-157 -88.5t-185 -29q-158 0 -284 77.5t-202 233.5q-93 188 -93 457zM229 730q0 -222 72 -369q56 -113 145.5 -168.5t207.5 -55.5 q209 0 316.5 161.5t107.5 430.5q0 304 -135 468q-112 136 -289 136t-289 -136q-136 -164 -136 -467zM378 1613q13 118 61 169.5t111 51.5q32 0 65 -9q19 -5 69 -30.5t65 -30.5q21 -6 38 -6q30 0 51 20.5t28 71.5h85q-9 -75 -32.5 -123t-61 -74t-71.5 -26q-25 0 -56 9 t-117 49q-46 21 -78 21q-24 0 -46 -21.5t-31 -71.5h-80z" />
<glyph unicode="&#xd6;" horiz-adv-x="1306" d="M66 731q0 263 83 439.5t214.5 256.5t290.5 80q167 0 303.5 -89t210.5 -269.5t74 -404.5q0 -131 -29.5 -263t-91 -236.5t-134.5 -164t-157 -88.5t-185 -29q-158 0 -284 77.5t-202 233.5q-93 188 -93 457zM229 730q0 -222 72 -369q56 -113 145.5 -168.5t207.5 -55.5 q209 0 316.5 161.5t107.5 430.5q0 304 -135 468q-112 136 -289 136t-289 -136q-136 -164 -136 -467zM456 1617v208h151v-208h-151zM725 1617v208h151v-208h-151z" />
<glyph unicode="&#xd7;" horiz-adv-x="981" d="M81 902l97 119l311 -379l313 381l98 -120l-312 -380l311 -379l-98 -121l-312 379l-309 -378l-98 120l311 379z" />
<glyph unicode="&#xd8;" horiz-adv-x="1213" d="M148 0v1470h550q136 0 219.5 -39.5t133.5 -133t50 -222.5q0 -138 -45 -221t-125 -131q72 -32 107.5 -94t38.5 -183l6 -197q3 -90 7 -115q5 -36 18.5 -60t38.5 -41v-33h-200q-10 36 -14 64q-5 37 -7 102l-9 225q-4 97 -25 144t-67 71.5t-144 24.5h-372v-631h-161zM309 796 h361q99 0 140 15q58 21 87 66q40 62 40 176q0 142 -78 205q-49 40 -155 40h-395v-502zM363 1863h133l110 -196l111 196h133l-166 -295h-155z" />
<glyph unicode="&#xd9;" horiz-adv-x="1213" d="M132 578v892h161v-908q0 -166 28 -248q29 -82 102 -129.5t180 -47.5q150 0 233 96t83 329v908h162v-892q0 -202 -51 -335q-52 -133 -165.5 -206.5t-271.5 -73.5q-103 0 -183 29.5t-135 84.5t-84 119t-46 165q-13 76 -13 217zM437 1718q0 84 48.5 138t111.5 54t112 -55 t49 -142q0 -82 -48 -134.5t-111 -52.5t-112.5 54t-49.5 138zM505 1718q0 -50 28 -81t64 -31q35 0 63 31t28 81q0 49 -28 80t-63 31q-36 0 -64 -31t-28 -80z" />
<glyph unicode="&#xda;" horiz-adv-x="1213" d="M132 578v892h161v-908q0 -166 28 -248q29 -82 102 -129.5t180 -47.5q150 0 233 96t83 329v908h162v-892q0 -202 -51 -335q-52 -133 -165.5 -206.5t-271.5 -73.5q-103 0 -183 29.5t-135 84.5t-84 119t-46 165q-13 76 -13 217zM493 1595l149 295h183l-220 -295h-112z" />
<glyph unicode="&#xdb;" horiz-adv-x="1213" d="M132 578v892h161v-908q0 -166 28 -248q29 -82 102 -129.5t180 -47.5q150 0 233 96t83 329v908h162v-892q0 -202 -51 -335q-52 -133 -165.5 -206.5t-271.5 -73.5q-103 0 -183 29.5t-135 84.5t-84 119t-46 165q-13 76 -13 217zM383 1514v108q81 6 110 17.5t49 42t34 100.5 h94v-864h-122v596h-165zM578 318l636 1469h111l-636 -1469h-111zM1175 356q9 110 22 158.5t39.5 89t75.5 83.5q27 23 140 99q69 46 91 82q23 36 23 88q0 67 -35.5 104t-90.5 37q-60 0 -95.5 -45t-35.5 -160h-115q2 113 20 165q26 75 86.5 119t145.5 44q108 0 174.5 -70.5 t66.5 -194.5q0 -73 -25 -124.5t-77 -97.5q-26 -24 -137 -96q-68 -44 -100 -80q-23 -26 -43 -71h381v-130h-511z" />
<glyph unicode="&#xdc;" horiz-adv-x="1213" d="M132 578v892h161v-908q0 -166 28 -248q29 -82 102 -129.5t180 -47.5q150 0 233 96t83 329v908h162v-892q0 -202 -51 -335q-52 -133 -165.5 -206.5t-271.5 -73.5q-103 0 -183 29.5t-135 84.5t-84 119t-46 165q-13 76 -13 217zM394 1619v208h151v-208h-151zM663 1619v208 h151v-208h-151z" />
<glyph unicode="&#xdd;" horiz-adv-x="1120" d="M25 1470h194l343 -698l344 698h190l-455 -877v-593h-161v593zM453 1595l149 295h183l-220 -295h-112z" />
<glyph unicode="&#xde;" horiz-adv-x="1120" d="M124 0v1470h161v-237h372q198 0 281.5 -124.5t83.5 -294.5q0 -136 -55 -238t-134.5 -144.5t-175.5 -42.5h-372v-389h-161zM285 562h320q132 0 193 61.5t61 187.5q0 121 -56.5 185t-145.5 64h-372v-498z" />
<glyph unicode="&#xdf;" horiz-adv-x="1026" d="M163 0v1090q0 194 96.5 297.5t252.5 103.5q151 0 244 -98.5t93 -270.5q0 -119 -48 -208q-29 -53 -88 -94q60 -28 92 -60q46 -46 74.5 -121t28.5 -189q0 -229 -110.5 -354t-268.5 -125q-39 0 -82 10v156q43 -5 72 -5q102 0 169.5 76.5t67.5 223.5q0 106 -29.5 167.5 t-83 94t-114.5 32.5q-30 0 -74 -8v161q23 -6 48 -6q87 0 143.5 61.5t56.5 170.5q0 111 -54 170.5t-138 59.5q-60 0 -108.5 -32.5t-69.5 -90.5t-21 -188v-1024h-149z" />
<glyph unicode="&#xe0;" horiz-adv-x="559" d="M112 0v1071h149v-177q39 108 102.5 159t127.5 51q19 0 49 -6v-190q-40 5 -58 5q-58 0 -115 -39.5t-86 -111.5q-20 -50 -20 -147v-615h-149zM199 1213l149 295h183l-220 -295h-112z" />
<glyph unicode="&#xe1;" d="M72 281q0 79 24 142t66 106q29 29 75 52t99 31l238 36q43 6 61 30q23 31 23 91q0 95 -48 141t-149 46q-100 0 -150.5 -48.5t-58.5 -157.5h-141q5 111 35 178q39 87 119.5 131.5t200.5 44.5q91 0 155.5 -23t102 -60t59 -92.5t21.5 -129.5v-596q0 -49 13 -65.5t35 -16.5 q16 0 49 8v-129q-50 -14 -85 -14q-74 0 -110 34.5t-43 120.5q-68 -88 -141.5 -131t-169.5 -43q-122 0 -201 84t-79 230zM224 296q0 -85 44.5 -133.5t119.5 -48.5q104 0 185.5 73t81.5 186v172q-23 -20 -49 -28q-38 -13 -143 -31q-80 -14 -108 -22q-43 -14 -71 -35t-44 -52 t-16 -81zM355 1232l149 295h183l-220 -295h-112z" />
<glyph unicode="&#xe2;" d="M72 281q0 79 24 142t66 106q29 29 75 52t99 31l238 36q43 6 61 30q23 31 23 91q0 95 -48 141t-149 46q-100 0 -150.5 -48.5t-58.5 -157.5h-141q5 111 35 178q39 87 119.5 131.5t200.5 44.5q91 0 155.5 -23t102 -60t59 -92.5t21.5 -129.5v-596q0 -49 13 -65.5t35 -16.5 q16 0 49 8v-129q-50 -14 -85 -14q-74 0 -110 34.5t-43 120.5q-68 -88 -141.5 -131t-169.5 -43q-122 0 -201 84t-79 230zM221 1232l167 295h156l167 -295h-134l-111 198l-111 -198h-134zM224 296q0 -85 44.5 -133.5t119.5 -48.5q104 0 185.5 73t81.5 186v172q-23 -20 -49 -28 q-38 -13 -143 -31q-80 -14 -108 -22q-43 -14 -71 -35t-44 -52t-16 -81z" />
<glyph unicode="&#xe3;" d="M72 281q0 79 24 142t66 106q29 29 75 52t99 31l238 36q43 6 61 30q23 31 23 91q0 95 -48 141t-149 46q-100 0 -150.5 -48.5t-58.5 -157.5h-141q5 111 35 178q39 87 119.5 131.5t200.5 44.5q91 0 155.5 -23t102 -60t59 -92.5t21.5 -129.5v-596q0 -49 13 -65.5t35 -16.5 q16 0 49 8v-129q-50 -14 -85 -14q-74 0 -110 34.5t-43 120.5q-68 -88 -141.5 -131t-169.5 -43q-122 0 -201 84t-79 230zM209 1507h82q16 -74 49 -111q44 -48 127 -48q73 0 116 36.5t61 122.5h82q-15 -144 -84 -213t-174 -69q-104 0 -173 69t-86 213zM224 296 q0 -85 44.5 -133.5t119.5 -48.5q104 0 185.5 73t81.5 186v172q-23 -20 -49 -28q-38 -13 -143 -31q-80 -14 -108 -22q-43 -14 -71 -35t-44 -52t-16 -81z" />
<glyph unicode="&#xe4;" d="M72 281q0 79 24 142t66 106q29 29 75 52t99 31l238 36q43 6 61 30q23 31 23 91q0 95 -48 141t-149 46q-100 0 -150.5 -48.5t-58.5 -157.5h-141q5 111 35 178q39 87 119.5 131.5t200.5 44.5q91 0 155.5 -23t102 -60t59 -92.5t21.5 -129.5v-596q0 -49 13 -65.5t35 -16.5 q16 0 49 8v-129q-50 -14 -85 -14q-74 0 -110 34.5t-43 120.5q-68 -88 -141.5 -131t-169.5 -43q-122 0 -201 84t-79 230zM224 296q0 -85 44.5 -133.5t119.5 -48.5q104 0 185.5 73t81.5 186v172q-23 -20 -49 -28q-38 -13 -143 -31q-80 -14 -108 -22q-43 -14 -71 -35t-44 -52 t-16 -81zM256 1256v208h151v-208h-151zM525 1256v208h151v-208h-151z" />
<glyph unicode="&#xe5;" horiz-adv-x="373" d="M101 1568l149 295h183l-220 -295h-112zM112 0v1470h149v-1470h-149z" />
<glyph unicode="&#xe6;" horiz-adv-x="840" d="M59 518q0 245 101 415.5t297 170.5q141 0 235.5 -98.5t108.5 -298.5h-141q-15 125 -69 180.5t-134 55.5q-101 0 -163 -84q-83 -112 -83 -350q0 -121 24 -202.5t76 -130t128 -48.5q81 0 141 59t80 188h141q-20 -205 -121 -306.5t-249 -101.5q-103 0 -187.5 56 t-134.5 187.5t-50 307.5zM339 1228l149 295h183l-220 -295h-112z" />
<glyph unicode="&#xe7;" horiz-adv-x="840" d="M59 517q0 246 101 416.5t297 170.5q141 0 235.5 -98.5t108.5 -298.5h-141q-15 125 -69 180.5t-134 55.5q-101 0 -163 -84q-83 -112 -83 -350q0 -121 24 -202.5t76 -130t128 -48.5q81 0 141 59t80 188h141q-19 -192 -108 -291.5t-226 -114.5l-65 -106q31 5 53 5 q65 0 103.5 -40.5t38.5 -110.5q0 -52 -24 -96.5t-70 -67.5t-105 -23q-37 0 -73 9t-90 34l29 81q70 -31 109 -31q46 0 71 23t25 62q0 36 -22.5 58.5t-56.5 22.5q-28 0 -67 -17l-29 41l95 157q-142 17 -221 129q-109 154 -109 418z" />
<glyph unicode="&#xe8;" horiz-adv-x="840" d="M59 518q0 245 101 415.5t297 170.5q141 0 235.5 -98.5t108.5 -298.5h-141q-15 125 -69 180.5t-134 55.5q-101 0 -163 -84q-83 -112 -83 -350q0 -121 24 -202.5t76 -130t128 -48.5q81 0 141 59t80 188h141q-20 -205 -121 -306.5t-249 -101.5q-103 0 -187.5 56 t-134.5 187.5t-50 307.5zM207 1523h133l110 -196l111 196h133l-166 -295h-155z" />
<glyph unicode="&#xe9;" d="M66 530q0 279 123.5 426.5t288.5 147.5q93 0 177 -46.5t134.5 -131.5t69.5 -206q11 -72 10 -249h-642q5 -178 75 -260.5t174 -82.5q83 0 141 47t96 167h146q-24 -114 -61 -179q-51 -90 -136.5 -143t-189.5 -53q-101 0 -179 45.5t-129 123.5t-74.5 182.5t-23.5 211.5z M227 618h491q-4 106 -33.5 179t-85.5 109.5t-121 36.5q-95 0 -167 -81t-84 -244zM371 1234l149 295h183l-220 -295h-112z" />
<glyph unicode="&#xea;" d="M66 529q0 280 123.5 427.5t288.5 147.5q93 0 177 -46.5t134.5 -131.5t69.5 -206q11 -72 10 -249h-642q5 -178 75 -260.5t174 -82.5q83 0 141 47t96 167h146q-23 -112 -60.5 -178.5t-113.5 -135t-95 -101.5q-25 -44 -25 -86t25 -67.5t62 -25.5q51 0 112 46v-119 q-80 -50 -153 -50q-68 0 -114 50t-46 134q0 87 57 160q-17 -2 -33 -2q-104 0 -181 44.5t-128 122t-75.5 182.5t-24.5 213zM227 618h491q-4 106 -33.5 179t-85.5 109.5t-121 36.5q-95 0 -167 -81t-84 -244z" />
<glyph unicode="&#xeb;" d="M66 530q0 279 123.5 426.5t288.5 147.5q93 0 177 -46.5t134.5 -131.5t69.5 -206q11 -72 10 -249h-642q5 -178 75 -260.5t174 -82.5q83 0 141 47t96 167h146q-24 -114 -61 -179q-51 -90 -136.5 -143t-189.5 -53q-101 0 -179 45.5t-129 123.5t-74.5 182.5t-23.5 211.5z M227 618h491q-4 106 -33.5 179t-85.5 109.5t-121 36.5q-95 0 -167 -81t-84 -244zM271 1258v208h151v-208h-151zM540 1258v208h151v-208h-151z" />
<glyph unicode="&#xec;" d="M66 530q0 279 123.5 426.5t288.5 147.5q93 0 177 -46.5t134.5 -131.5t69.5 -206q11 -72 10 -249h-642q5 -178 75 -260.5t174 -82.5q83 0 141 47t96 167h146q-24 -114 -61 -179q-51 -90 -136.5 -143t-189.5 -53q-101 0 -179 45.5t-129 123.5t-74.5 182.5t-23.5 211.5z M224 1508h133l110 -196l111 196h133l-166 -295h-155zM227 618h491q-4 106 -33.5 179t-85.5 109.5t-121 36.5q-95 0 -167 -81t-84 -244z" />
<glyph unicode="&#xed;" horiz-adv-x="467" d="M121 1230l149 295h183l-220 -295h-112zM158 0v1071h151v-1071h-151z" />
<glyph unicode="&#xee;" horiz-adv-x="467" d="M-14 1230l167 295h156l167 -295h-134l-111 198l-111 -198h-134zM158 0v1071h151v-1071h-151z" />
<glyph unicode="&#xef;" horiz-adv-x="1124" d="M51 512q0 250 97.5 421t277.5 171q65 0 114 -24t83 -64q24 -27 53 -82v536h149v-1470h-134v134q-46 -63 -79.5 -94.5t-83 -52t-109.5 -20.5q-141 0 -237 108q-131 146 -131 437zM203 524q0 -217 80 -325q57 -76 156 -76q107 0 168 81q82 109 82 345q0 178 -62.5 288 t-177.5 110q-62 0 -118 -39.5t-92 -137t-36 -246.5zM933 1086v72q41 11 62 41.5t20 90.5h-74v180h148v-180q0 -96 -45.5 -148.5t-110.5 -55.5z" />
<glyph unicode="&#xf0;" d="M50 531q0 270 123 419q104 126 258 126q53 0 92 -12q30 -9 73 -38q-44 81 -90 147q-47 66 -126 157l-129 -112l-66 71l126 109l-128 124l97 87q88 -76 135 -126l131 110l69 -72l-129 -107q135 -148 198 -245q89 -140 137.5 -294t48.5 -318q0 -256 -112.5 -423 t-312.5 -167q-169 0 -267 121q-128 156 -128 443zM201 530q0 -102 18 -179.5t49 -125t79.5 -76.5t108.5 -29q106 0 171 86q91 121 91 344q0 194 -72.5 283.5t-182.5 89.5q-115 0 -188.5 -100.5t-73.5 -292.5z" />
<glyph unicode="&#xf1;" d="M110 0v1071h141v-151q50 84 108 126q80 58 178 58q61 0 111.5 -22t87.5 -61t56 -82t27 -108q6 -49 6 -144v-687h-149v676q0 109 -18 160t-60.5 79t-97.5 28q-59 0 -106.5 -29t-76.5 -73t-46 -121q-12 -48 -12 -132v-588h-149zM393 1213l149 295h183l-220 -295h-112z" />
<glyph unicode="&#xf2;" d="M110 0v1071h141v-151q50 84 108 126q80 58 178 58q61 0 111.5 -22t87.5 -61t56 -82t27 -108q6 -49 6 -144v-687h-149v676q0 109 -18 160t-60.5 79t-97.5 28q-59 0 -106.5 -29t-76.5 -73t-46 -121q-12 -48 -12 -132v-588h-149zM238 1508h133l110 -196l111 196h133 l-166 -295h-155z" />
<glyph unicode="&#xf3;" d="M59 536q0 287 128 440q107 128 280 128q174 0 280 -128q128 -153 128 -440q0 -257 -106.5 -413t-301.5 -156q-80 0 -143.5 27t-111.5 73q-36 35 -72 97.5t-55 141.5q-26 110 -26 230zM211 536q0 -214 85 -323q66 -85 171 -85t171 85q86 110 86 323t-86 322 q-66 85 -171 85t-171 -85q-85 -109 -85 -322zM353 1226l149 295h183l-220 -295h-112z" />
<glyph unicode="&#xf4;" d="M59 536q0 287 128 440q107 128 280 128q174 0 280 -128q128 -153 128 -440q0 -257 -106.5 -413t-301.5 -156q-80 0 -143.5 27t-111.5 73q-36 35 -72 97.5t-55 141.5q-26 110 -26 230zM211 536q0 -214 85 -323q66 -85 171 -85t171 85q86 110 86 323t-86 322 q-66 85 -171 85t-171 -85q-85 -109 -85 -322zM219 1226l167 295h156l167 -295h-134l-111 198l-111 -198h-134z" />
<glyph unicode="&#xf5;" d="M59 536q0 287 128 440q107 128 280 128q174 0 280 -128q128 -153 128 -440q0 -257 -106.5 -413t-301.5 -156q-80 0 -143.5 27t-111.5 73q-36 35 -72 97.5t-55 141.5q-26 110 -26 230zM177 1245q13 118 61 169.5t111 51.5q32 0 65 -9q19 -5 69 -30.5t65 -30.5q21 -6 38 -6 q30 0 51 20.5t28 71.5h85q-9 -75 -32.5 -123t-61 -74t-71.5 -26q-25 0 -56 9t-117 49q-46 21 -78 21q-24 0 -46 -21.5t-31 -71.5h-80zM211 536q0 -214 85 -323q66 -85 171 -85t171 85q86 110 86 323t-86 322q-66 85 -171 85t-171 -85q-85 -109 -85 -322z" />
<glyph unicode="&#xf6;" d="M59 536q0 287 128 440q107 128 280 128q174 0 280 -128q128 -153 128 -440q0 -257 -106.5 -413t-301.5 -156q-80 0 -143.5 27t-111.5 73q-36 35 -72 97.5t-55 141.5q-26 110 -26 230zM211 536q0 -214 85 -323q66 -85 171 -85t171 85q86 110 86 323t-86 322 q-66 85 -171 85t-171 -85q-85 -109 -85 -322zM254 1250v208h151v-208h-151zM523 1250v208h151v-208h-151z" />
<glyph unicode="&#xf7;" horiz-adv-x="1124" d="M134 432v172h855v-172h-855zM476 21v221h173v-221h-173zM476 804v220h173v-220h-173z" />
<glyph unicode="&#xf8;" horiz-adv-x="559" d="M55 1508h133l110 -196l111 196h133l-166 -295h-155zM112 0v1071h149v-177q39 108 102.5 159t127.5 51q19 0 49 -6v-190q-40 5 -58 5q-58 0 -115 -39.5t-86 -111.5q-20 -50 -20 -147v-615h-149z" />
<glyph unicode="&#xf9;" d="M113 342v729h149v-711q0 -134 42.5 -183t125.5 -49q52 0 93.5 17.5t71.5 49.5q22 24 40 66.5t28 85.5q10 44 10 134v590h149v-1071h-141v158q-45 -95 -113 -143t-180 -48q-102 0 -164 45.5t-86.5 116.5t-24.5 213zM302 1362q0 84 48.5 138t111.5 54t112 -55t49 -142 q0 -82 -48 -134.5t-111 -52.5t-112.5 54t-49.5 138zM370 1362q0 -50 28 -81t64 -31q35 0 63 31t28 81q0 49 -28 80t-63 31q-36 0 -64 -31t-28 -80z" />
<glyph unicode="&#xfa;" d="M113 342v729h149v-711q0 -134 42.5 -183t125.5 -49q52 0 93.5 17.5t71.5 49.5q22 24 40 66.5t28 85.5q10 44 10 134v590h149v-1071h-141v158q-45 -95 -113 -143t-180 -48q-102 0 -164 45.5t-86.5 116.5t-24.5 213zM360 1225l149 295h183l-220 -295h-112z" />
<glyph unicode="&#xfb;" d="M113 342v729h149v-711q0 -134 42.5 -183t125.5 -49q52 0 93.5 17.5t71.5 49.5q22 24 40 66.5t28 85.5q10 44 10 134v590h149v-1071h-141v158q-45 -95 -113 -143t-180 -48q-102 0 -164 45.5t-86.5 116.5t-24.5 213zM222 1158v108q81 6 110 17.5t49 42t34 100.5h94v-864 h-122v596h-165zM417 -38l636 1469h111l-636 -1469h-111zM1014 0q9 110 22 158.5t39.5 89t75.5 83.5q27 23 140 99q69 46 91 82q23 36 23 88q0 67 -35.5 104t-90.5 37q-60 0 -95.5 -45t-35.5 -160h-115q2 113 20 165q26 75 86.5 119t145.5 44q108 0 174.5 -70.5t66.5 -194.5 q0 -73 -25 -124.5t-77 -97.5q-26 -24 -137 -96q-68 -44 -100 -80q-23 -26 -43 -71h381v-130h-511z" />
<glyph unicode="&#xfc;" d="M113 342v729h149v-711q0 -134 42.5 -183t125.5 -49q52 0 93.5 17.5t71.5 49.5q22 24 40 66.5t28 85.5q10 44 10 134v590h149v-1071h-141v158q-45 -95 -113 -143t-180 -48q-102 0 -164 45.5t-86.5 116.5t-24.5 213zM260 1250v208h151v-208h-151zM529 1250v208h151v-208 h-151z" />
<glyph unicode="&#xfd;" horiz-adv-x="840" d="M18 1071h166l235 -879l236 879h166l-336 -1114q-74 -244 -127 -319t-158 -75q-45 0 -101 15v166q48 -21 88 -21q38 0 64.5 21.5t43.5 75.5l49 151zM305 1224l149 295h183l-220 -295h-112z" />
<glyph unicode="&#xfe;" d="M99 -421v1891h149v-545q33 58 59 87q37 41 88.5 66.5t119.5 25.5q147 0 240 -118q119 -153 119 -443t-127 -449q-102 -127 -256 -127q-86 0 -143 38.5t-100 118.5v-545h-149zM244 512q0 -206 69 -295t167 -89q62 0 117 36.5t90.5 133t35.5 248.5q0 211 -79 317 q-57 76 -151 76q-68 0 -127 -43t-90.5 -129.5t-31.5 -254.5z" />
<glyph unicode="&#xff;" horiz-adv-x="559" d="M204 1262v208h151v-208h-151z" />
<glyph unicode="&#x152;" horiz-adv-x="1120" d="M82 477h151q3 -96 29 -157q36 -83 113 -133t190 -50q154 0 232.5 69t78.5 181q0 91 -46 146t-185 98l-215 65q-166 51 -237 141t-71 232q0 202 116.5 320t316.5 118q130 0 234 -54t157.5 -156t57.5 -259h-151q-11 147 -88.5 221t-212.5 74q-144 0 -211.5 -69t-67.5 -174 q0 -78 42.5 -128t162.5 -85l240 -72q189 -56 255 -154t66 -247q0 -133 -53 -231.5t-164 -154t-263 -55.5q-166 0 -277 72t-163 205q-38 98 -37 237zM471 1568l149 295h183l-220 -295h-112z" />
<glyph unicode="&#x153;" horiz-adv-x="840" d="M59 338h141q8 -114 65.5 -168.5t164.5 -54.5q101 0 155.5 49t54.5 123q0 51 -34.5 88.5t-132.5 66.5l-132 39q-142 42 -198 111t-56 182q0 90 41 169t116 120t173 41q150 0 241.5 -89.5t95.5 -246.5h-141q-9 96 -59.5 142t-142.5 46q-89 0 -136 -43t-47 -112 q0 -53 33.5 -90.5t118.5 -62.5l170 -50q129 -38 180 -102.5t51 -172.5q0 -138 -86 -247t-271 -109q-169 0 -263 92t-102 279zM337 1213l149 295h183l-220 -295h-112z" />
<glyph unicode="&#x178;" horiz-adv-x="840" d="M52 0v142l521 768h-482v161h680v-147l-517 -763h533v-161h-735zM349 1212l149 295h183l-220 -295h-112z" />
<glyph unicode="&#x2c6;" horiz-adv-x="559" d="M35 1212l167 295h156l167 -295h-134l-111 198l-111 -198h-134z" />
<glyph unicode="&#x2dc;" horiz-adv-x="559" d="M-7 1244q13 118 61 169.5t111 51.5q32 0 65 -9q19 -5 69 -30.5t65 -30.5q21 -6 38 -6q30 0 51 20.5t28 71.5h85q-9 -75 -32.5 -123t-61 -74t-71.5 -26q-25 0 -56 9t-117 49q-46 21 -78 21q-24 0 -46 -21.5t-31 -71.5h-80z" />
<glyph unicode="&#x2000;" horiz-adv-x="955" />
<glyph unicode="&#x2001;" horiz-adv-x="1910" />
<glyph unicode="&#x2002;" horiz-adv-x="955" />
<glyph unicode="&#x2003;" horiz-adv-x="1910" />
<glyph unicode="&#x2004;" horiz-adv-x="636" />
<glyph unicode="&#x2005;" horiz-adv-x="477" />
<glyph unicode="&#x2006;" horiz-adv-x="318" />
<glyph unicode="&#x2007;" horiz-adv-x="318" />
<glyph unicode="&#x2008;" horiz-adv-x="238" />
<glyph unicode="&#x2009;" horiz-adv-x="382" />
<glyph unicode="&#x200a;" horiz-adv-x="106" />
<glyph unicode="&#x2010;" horiz-adv-x="559" d="M74 479v185h411v-185h-411z" />
<glyph unicode="&#x2011;" horiz-adv-x="559" d="M74 479v185h411v-185h-411z" />
<glyph unicode="&#x2012;" horiz-adv-x="559" d="M74 479v185h411v-185h-411z" />
<glyph unicode="&#x2013;" d="M0 497v147h934v-147h-934z" />
<glyph unicode="&#x2014;" horiz-adv-x="1679" d="M218 497v147h1244v-147h-1244z" />
<glyph unicode="&#x2018;" horiz-adv-x="373" d="M101 954v205q0 145 40 211.5t131 99.5v-94q-38 -11 -57 -43q-25 -45 -28 -157h85v-222h-171z" />
<glyph unicode="&#x2019;" horiz-adv-x="373" d="M101 954v95q28 8 46 27.5t29 59.5q8 30 11 113h-86v221h171v-204q0 -143 -41 -211t-130 -101z" />
<glyph unicode="&#x201a;" horiz-adv-x="373" d="M101 0v221h171v-205q0 -143 -41 -210.5t-130 -100.5v94q28 9 46 28.5t29 59.5q8 30 11 113h-86z" />
<glyph unicode="&#x201c;" horiz-adv-x="559" d="M58 954v205q0 158 54 233q35 48 117 78v-94q-38 -11 -57 -43q-25 -45 -28 -157h85v-222h-171zM330 954v205q0 157 54 232q35 49 117 79v-94q-45 -13 -63.5 -57.5t-21.5 -142.5h85v-222h-171z" />
<glyph unicode="&#x201d;" horiz-adv-x="559" d="M58 954v95q28 8 45.5 26.5t27.5 55.5t13 118h-86v221h171v-204q0 -162 -59 -238q-36 -45 -112 -74zM330 954v95q44 12 63 56q20 44 23 144h-86v221h171v-204q0 -143 -41 -211t-130 -101z" />
<glyph unicode="&#x201e;" horiz-adv-x="559" d="M58 0v221h171v-205q0 -161 -59 -237q-36 -46 -112 -74v94q28 8 45.5 27.5t27.5 56.5t13 117h-86zM330 0v221h171v-205q0 -143 -41 -210.5t-130 -100.5v94q44 13 63 56q20 44 23 145h-86z" />
<glyph unicode="&#x2022;" horiz-adv-x="588" d="M113 734q0 102 53 161t128 59q74 0 127.5 -59.5t53.5 -160.5q0 -103 -53.5 -162.5t-127.5 -59.5t-127.5 60.5t-53.5 161.5z" />
<glyph unicode="&#x2026;" horiz-adv-x="1679" d="M194 0v220h171v-220h-171zM754 0v220h171v-220h-171zM1314 0v220h171v-220h-171z" />
<glyph unicode="&#x202f;" horiz-adv-x="382" />
<glyph unicode="&#x2039;" horiz-adv-x="559" d="M148 465v189l264 251v-180l-177 -166l177 -166v-180z" />
<glyph unicode="&#x203a;" horiz-adv-x="559" d="M147 213v180l177 166l-177 166v180l264 -251v-189z" />
<glyph unicode="&#x205f;" horiz-adv-x="477" />
<glyph unicode="&#x2122;" horiz-adv-x="1679" d="M145 1348v121h507v-121h-195v-604h-118v604h-194zM753 744v725h169l153 -519l152 519h169v-725h-109v585l-165 -585h-95l-165 585v-585h-109z" />
<glyph unicode="&#x25fc;" horiz-adv-x="1070" d="M0 0v1070h1070v-1070h-1070z" />
</font>
</defs>
</svg>
