<?xml version="1.0" standalone="no"?>
<!DOCTYPE svg PUBLIC "-//W3C//DTD SVG 1.1//EN" "http://www.w3.org/Graphics/SVG/1.1/DTD/svg11.dtd" >
<svg xmlns="http://www.w3.org/2000/svg">
<metadata></metadata>
<defs>
<font id="open_sans_condensed_lightCnLt" horiz-adv-x="2048" >
<font-face units-per-em="2048" ascent="1638" descent="-410" />
<missing-glyph horiz-adv-x="385" />
<glyph horiz-adv-x="0" />
<glyph unicode="&#xd;" />
<glyph />
<glyph />
<glyph unicode=" "  horiz-adv-x="385" />
<glyph unicode="&#x09;" horiz-adv-x="385" />
<glyph unicode="&#xa0;" horiz-adv-x="385" />
<glyph unicode="!" horiz-adv-x="451" d="M147 90q0 107 78 107q32 0 55 -24t23 -83q0 -57 -23 -81t-55 -24q-78 0 -78 105zM162 1462h125l-35 -1095h-55z" />
<glyph unicode="&#x22;" horiz-adv-x="686" d="M133 1462h123l-29 -528h-61zM430 1462h123l-29 -528h-61z" />
<glyph unicode="#" horiz-adv-x="868" d="M37 467v90h178l45 399h-178v86h188l47 420h82l-49 -420h236l49 420h76l-47 -420h165v-86h-176l-45 -399h174v-90h-184l-53 -467h-82l55 467h-233l-54 -467h-77l51 467h-168zM295 557h233l47 399h-235z" />
<glyph unicode="$" horiz-adv-x="819" d="M94 176v103q26 -15 58.5 -27t68 -20t73 -12.5t73.5 -4.5v494q-75 31 -126 66t-80 73q-57 76 -57 201t73 213t190 108v186h82v-182q141 -5 258 -61l-37 -86q-117 54 -221 57v-508q150 -61 214 -139q64 -76 64 -193q0 -124 -76 -209q-75 -85 -202 -106v-247h-82v241 q-175 0 -273 53zM201 1055q0 -48 9.5 -85t29.5 -65q38 -53 127 -96v469q-73 -16 -121 -79q-45 -62 -45 -144zM449 223q81 19 131 78q49 59 49 137q0 85 -41.5 141t-138.5 97v-453z" />
<glyph unicode="%" horiz-adv-x="1208" d="M94 1026q0 223 50.5 340t150.5 117t152.5 -115.5t52.5 -341.5q0 -110 -14 -195.5t-40 -144.5t-64.5 -90t-86.5 -31q-99 0 -150 120t-51 341zM184 1028q0 -191 25 -285t88 -94q60 0 86.5 93t26.5 286q0 377 -117 377q-60 0 -84.5 -93t-24.5 -284zM322 0l475 1462h88 l-475 -1462h-88zM709 440q0 230 51.5 343.5t148.5 113.5q100 0 152.5 -115.5t52.5 -341.5q0 -224 -54 -341.5t-151 -117.5q-49 0 -86.5 31t-62.5 89.5t-38 144t-13 194.5zM799 442q0 -191 24.5 -285t87.5 -94q60 0 86.5 93t26.5 286q0 377 -117 377q-60 0 -84 -93t-24 -284z " />
<glyph unicode="&#x26;" horiz-adv-x="834" d="M66 356q0 93 22 162q23 74 65 132q43 61 132 138q-37 69 -61.5 124t-35.5 98q-22 85 -22 194q0 133 51.5 206t142.5 73t143 -75t52 -214q0 -136 -38 -235q-37 -96 -126 -185l236 -422q57 118 57 293h94q0 -93 -29 -204t-69 -181l156 -260h-109l-98 178q-37 -55 -72 -93.5 t-70 -60.5q-71 -43 -159 -43q-122 0 -192 98t-70 277zM162 354q0 -136 47.5 -208t126.5 -72q72 0 131 45.5t113 142.5l-254 455q-96 -90 -130 -168t-34 -195zM260 1194q0 -87 24 -183q26 -98 64 -161q65 66 89 152t24 192q0 199 -105 199q-46 0 -71 -51t-25 -148z" />
<glyph unicode="'" horiz-adv-x="389" d="M133 1462h123l-29 -528h-61z" />
<glyph unicode="(" horiz-adv-x="565" d="M104 561q0 258 78 494t219 407h80q-135 -200 -203 -430q-69 -231 -69 -469q0 -244 72 -479q74 -235 198 -407h-78q-143 167 -220 396q-77 231 -77 488z" />
<glyph unicode=")" horiz-adv-x="565" d="M84 1462h80q144 -171 220 -407q77 -239 77 -494q0 -256 -77 -489q-77 -230 -220 -395h-78q128 180 199 414q71 236 71 472q0 241 -68.5 470t-203.5 429z" />
<glyph unicode="*" horiz-adv-x="745" d="M94 1255l17 107l229 -55l-27 249h121l-28 -249l231 57l14 -107l-227 -8l156 -227l-97 -45l-108 237l-117 -239l-92 47l149 227z" />
<glyph unicode="+" horiz-adv-x="819" d="M59 682v82h310v434h82v-434h309v-82h-309v-432h-82v432h-310z" />
<glyph unicode="," horiz-adv-x="422" d="M78 -263q74 253 100 468h115l14 -23q-66 -227 -166 -445h-63z" />
<glyph unicode="-" horiz-adv-x="516" d="M53 502v102h410v-102h-410z" />
<glyph unicode="." horiz-adv-x="422" d="M133 90q0 107 78 107q32 0 55 -24t23 -83q0 -57 -23 -81t-55 -24q-78 0 -78 105z" />
<glyph unicode="/" horiz-adv-x="713" d="M51 0l527 1462h96l-522 -1462h-101z" />
<glyph unicode="0" horiz-adv-x="819" d="M88 733q0 750 320 750q166 0 243.5 -186t77.5 -564q0 -371 -80.5 -561.5t-240.5 -190.5q-170 0 -245 175q-38 89 -56.5 232.5t-18.5 344.5zM190 733q0 -330 52.5 -494.5t165.5 -164.5q219 0 219 659q0 656 -219 656q-113 0 -165.5 -162t-52.5 -494z" />
<glyph unicode="1" horiz-adv-x="819" d="M150 1202l282 260h80v-1462h-96v1075q0 66 2 136.5t6 146.5q-11 -14 -34.5 -41t-63.5 -64l-125 -114z" />
<glyph unicode="2" horiz-adv-x="819" d="M74 0v78l295 446q69 104 114 186.5t68 145.5q47 126 47 279q0 118 -61 188t-166 70q-69 0 -120.5 -20t-103.5 -62l-53 75q71 53 134 75t149 22q151 0 235 -94q84 -95 84 -254q0 -111 -25 -207q-24 -96 -69 -190q-22 -47 -59 -107t-88 -135l-269 -398v-8h543v-90h-655z " />
<glyph unicode="3" horiz-adv-x="819" d="M76 1350q74 72 146.5 102.5t158.5 30.5q143 0 229 -95t86 -251q0 -138 -58.5 -233t-178.5 -138v-8q61 -14 109.5 -45t82 -77.5t51 -107.5t17.5 -133q0 -191 -97 -303q-95 -111 -262 -111q-166 0 -276 52v108q125 -73 276 -73q123 0 190 88q68 89 68 243q0 146 -79 229 t-234 83h-74v92h80q127 0 207 89q80 91 80 236q0 126 -56 196.5t-159 70.5q-67 0 -124 -23q-54 -22 -122 -86z" />
<glyph unicode="4" horiz-adv-x="819" d="M37 332v84l479 1063h121v-1057h156v-90h-156v-332h-96v332h-504zM137 422h404v706q0 61 2 120.5t6 117.5h-6l-74 -188z" />
<glyph unicode="5" horiz-adv-x="819" d="M98 35v110q110 -77 240 -77q133 0 211 109t78 284q0 164 -70 245.5t-192 81.5q-102 0 -207 -30l-49 63l43 641h495v-94h-414l-36 -514q92 20 174 20q164 0 260 -109q96 -110 96 -300q0 -221 -105 -353q-104 -131 -280 -131q-156 0 -244 54z" />
<glyph unicode="6" horiz-adv-x="819" d="M100 623q0 439 107 649.5t317 210.5q76 0 127 -23v-96q-57 25 -135 25q-145 0 -226 -164.5t-91 -483.5h8q34 76 92.5 119t136.5 43q136 0 214 -121q79 -121 79 -333q0 -219 -83 -344q-82 -124 -224 -124q-157 0 -239.5 164.5t-82.5 477.5zM201 524q0 -127 28 -233 q59 -217 195 -217q100 0 152.5 91.5t52.5 278.5q0 179 -52 273t-155 94q-100 0 -161 -81q-60 -81 -60 -206z" />
<glyph unicode="7" horiz-adv-x="819" d="M57 1368v94h691v-82l-451 -1380h-102l454 1368h-592z" />
<glyph unicode="8" horiz-adv-x="819" d="M72 350q0 126 54 224q28 50 75 96.5t116 91.5q-211 162 -211 381q0 151 85 245q86 95 221 95q136 0 222 -90q85 -90 85 -246q0 -243 -240 -385q108 -73 160 -128q54 -57 82.5 -122.5t28.5 -149.5q0 -167 -93 -275q-91 -106 -235 -106q-155 0 -252 101q-98 104 -98 268z M174 348q0 -126 66 -202t174 -76q106 0 169 79q64 79 64 218q0 181 -207 321l-49 33q-121 -77 -169 -162q-48 -83 -48 -211zM207 1139q0 -104 45 -180q45 -77 158 -152q109 66 158.5 147.5t49.5 184.5q0 121 -54 187.5t-154 66.5q-94 0 -148.5 -66.5t-54.5 -187.5z" />
<glyph unicode="9" horiz-adv-x="819" d="M82 1014q0 218 84 343q85 126 235 126q76 0 134 -41t97 -120.5t59 -196t20 -267.5q0 -437 -109.5 -657t-320.5 -220q-19 0 -38.5 1.5t-40.5 5.5q-38 7 -57 14v96q55 -24 144 -24q145 0 229 168q83 167 94 479h-8q-34 -76 -92.5 -119t-136.5 -43q-137 0 -215 123t-78 332z M182 1018q0 -179 52 -273t155 -94q100 0 160 84q61 85 61 226q0 124 -27 225q-26 100 -74 151.5t-114 51.5q-98 0 -155.5 -92.5t-57.5 -278.5z" />
<glyph unicode=":" horiz-adv-x="422" d="M133 90q0 107 78 107q32 0 55 -24t23 -83q0 -57 -23 -81t-55 -24q-78 0 -78 105zM133 981q0 106 78 106t78 -106q0 -57 -23 -82t-55 -25q-78 0 -78 107z" />
<glyph unicode=";" horiz-adv-x="422" d="M78 -263q74 253 100 468h115l14 -23q-66 -227 -166 -445h-63zM133 981q0 106 78 106t78 -106q0 -57 -23 -82t-55 -25q-78 0 -78 107z" />
<glyph unicode="&#x3c;" horiz-adv-x="819" d="M59 690v68l703 399v-100l-600 -334l600 -334v-102z" />
<glyph unicode="=" horiz-adv-x="819" d="M59 465v82h701v-82h-701zM59 895v82h701v-82h-701z" />
<glyph unicode="&#x3e;" horiz-adv-x="819" d="M57 287v102l600 334l-600 334v100l703 -399v-68z" />
<glyph unicode="?" horiz-adv-x="578" d="M35 1409q100 74 225 74q131 0 200.5 -82.5t69.5 -241.5q0 -122 -31 -202q-16 -41 -47.5 -97.5t-80.5 -130.5q-29 -45 -50 -83.5t-33 -73.5q-24 -69 -24 -169v-36h-74v51q0 112 20 187q22 76 79 161q88 133 114 213q27 79 27 174q0 117 -45.5 178.5t-124.5 61.5 q-57 0 -97 -16t-81 -44zM156 90q0 107 77 107q32 0 55 -24t23 -83q0 -57 -23 -81t-55 -24q-77 0 -77 105z" />
<glyph unicode="@" horiz-adv-x="1233" d="M111 580q-1 205 37.5 371t110 282.5t172.5 178.5t224 61q139 -2 247 -93q111 -94 169 -262q59 -169 59 -383q0 -504 -225 -504q-83 0 -119 54t-38 153h-9q-17 -109 -54 -158t-103 -49q-88 0 -136.5 93t-48.5 264q0 473 262 473q86 0 164 -29l-20 -477v-61 q0 -91 26.5 -129.5t75.5 -38.5q68 0 97 102t30 313q1 142 -27 261t-78.5 204.5t-120.5 132t-153 45.5q-134 -2 -236 -99q-104 -99 -159 -279q-55 -177 -55 -410q0 -327 102 -508q104 -181 285 -181q69 0 128.5 20t96.5 49v-94q-50 -31 -104 -46t-127 -15q-115 0 -203 49 t-148 145t-90.5 237.5t-31.5 327.5zM496 584q0 -258 104 -258q45 0 70.5 82.5t34.5 257.5l16 305q-29 8 -72 8q-75 0 -114 -99.5t-39 -295.5z" />
<glyph unicode="A" horiz-adv-x="813" d="M0 0l352 1462h101l360 -1462h-100l-129 530h-355l-127 -530h-102zM248 629h313l-129 545q-11 46 -18.5 89t-12.5 85q-5 -44 -11.5 -87t-16.5 -87z" />
<glyph unicode="B" horiz-adv-x="907" d="M160 0v1462h280q173 0 265 -87.5t92 -260.5q0 -297 -217 -340v-8q126 -26 186.5 -111t60.5 -239q0 -197 -87 -306q-87 -110 -244 -110h-336zM258 90h225q242 0 242 328q0 147 -70.5 225t-199.5 78h-197v-631zM258 811h184q137 0 195.5 75.5t58.5 229.5q0 125 -64 190.5 t-192 65.5h-182v-561z" />
<glyph unicode="C" horiz-adv-x="860" d="M111 735q1 176 31 313t93 237q125 200 340 200q133 0 234 -62l-45 -86q-84 54 -191 54q-166 0 -263 -175q-49 -88 -72.5 -208t-24.5 -275v-11q-1 -144 25 -262q26 -122 75 -208t117 -132q67 -46 149 -46h3q57 1 105.5 11t90.5 30v-90q-76 -42 -205 -44h-4q-101 0 -185 51 q-86 52 -146 150q-60 97 -94 237q-33 136 -33 306v10z" />
<glyph unicode="D" horiz-adv-x="995" d="M160 0v1462h266q226 0 342.5 -182.5t116.5 -534.5q0 -745 -465 -745h-260zM258 90h156q190 0 279 166t89 483q0 309 -91 471t-269 162h-164v-1282z" />
<glyph unicode="E" horiz-adv-x="788" d="M160 0v1462h530v-94h-432v-555h408v-94h-408v-625h432v-94h-530z" />
<glyph unicode="F" horiz-adv-x="729" d="M160 0v1462h532v-94h-434v-620h410v-95h-410v-653h-98z" />
<glyph unicode="G" horiz-adv-x="1075" d="M111 735q0 356 136 552t384 196q167 0 313 -94l-47 -86q-137 88 -266 88q-205 0 -310.5 -168.5t-105.5 -489.5q0 -315 106 -487t302 -172q141 0 239 37v532h-221v94h320v-692q-165 -64 -347 -64q-239 0 -371 199t-132 555z" />
<glyph unicode="H" horiz-adv-x="1026" d="M160 0v1462h98v-649h510v649h98v-1462h-98v719h-510v-719h-98z" />
<glyph unicode="I" horiz-adv-x="418" d="M160 0v1462h98v-1462h-98z" />
<glyph unicode="J" horiz-adv-x="401" d="M-89 -251q51 -20 114 -20t94 57.5t31 189.5v1486h98v-1484q0 -173 -56 -259.5t-165 -86.5q-67 0 -116 25v92z" />
<glyph unicode="K" horiz-adv-x="825" d="M160 0v1462h98v-774q51 96 432 774h107l-367 -643l395 -819h-110l-344 729l-113 -149v-580h-98z" />
<glyph unicode="L" horiz-adv-x="711" d="M160 0v1462h98v-1368h412v-94h-510z" />
<glyph unicode="M" horiz-adv-x="1395" d="M160 0v1462h145l328 -1118q43 -149 57 -252h8q10 72 62 250l325 1120h150v-1462h-98v1057q0 31 2.5 98.5t7.5 173.5h-8l-387 -1329h-111l-389 1331h-8q5 -106 7.5 -172t2.5 -94v-1065h-94z" />
<glyph unicode="N" horiz-adv-x="1090" d="M160 0v1462h127l549 -1296h6q-4 82 -6 150.5t-2 123.5v1022h96v-1462h-125l-553 1311h-8q12 -137 12 -262v-1049h-96z" />
<glyph unicode="O" horiz-adv-x="1065" d="M111 735q0 378 106 563t318 185q203 0 311 -195q54 -97 81 -235t27 -320q0 -364 -109 -558q-107 -194 -313 -194q-208 0 -314 195q-107 197 -107 559zM213 733q0 -328 81 -493.5t238 -165.5t238.5 165t81.5 494q0 327 -79.5 491.5t-237.5 164.5q-161 0 -241.5 -167.5 t-80.5 -488.5z" />
<glyph unicode="P" horiz-adv-x="840" d="M160 0v1462h200q107 0 184.5 -24.5t128 -76t75 -131t24.5 -188.5q0 -226 -103.5 -332t-306.5 -106h-104v-604h-98zM258 694h98q172 0 244 81t72 267q0 88 -18.5 151t-56 102.5t-95 58t-135.5 18.5h-109v-678z" />
<glyph unicode="Q" horiz-adv-x="1065" d="M111 735q0 378 106 563t318 185q203 0 311 -195q54 -97 81 -235t27 -320q0 -293 -70 -476.5t-204 -246.5l213 -357h-125l-186 332l-50 -4q-14 -1 -27 -1q-87 0 -155 45q-78 52 -132 151q-107 197 -107 559zM213 733q0 -328 81 -493.5t238 -165.5t238.5 165t81.5 494 q0 327 -79.5 491.5t-237.5 164.5q-161 0 -241.5 -167.5t-80.5 -488.5z" />
<glyph unicode="R" horiz-adv-x="870" d="M160 0v1462h200q214 0 313 -101t99 -302q0 -76 -13 -138.5t-41 -112t-73 -86t-108 -60.5l290 -662h-110l-273 639h-186v-639h-98zM258 729h137q134 0 205.5 81.5t71.5 244.5q0 82 -18 141t-55.5 97t-95 55.5t-136.5 17.5h-109v-637z" />
<glyph unicode="S" horiz-adv-x="809" d="M86 31v106q26 -14 58.5 -26t70.5 -20q79 -17 152 -17q112 0 184 85t72 216q0 121 -51 192q-50 70 -195 142q-57 28 -99 56t-70 54q-56 54 -82.5 125t-27.5 170v6q0 78 26 143q26 68 72 117q47 48 109 76q60 27 128 27h5q85 -1 154.5 -19.5t109.5 -40.5l-38 -94 q-111 57 -226 57q-108 0 -176 -74q-67 -73 -67 -194q0 -124 49 -191q25 -34 72.5 -69.5t119.5 -71.5q73 -36 127 -78t89 -91t52 -107t17 -127q0 -180 -100 -292q-100 -110 -254 -110q-173 0 -281 50z" />
<glyph unicode="T" horiz-adv-x="711" d="M14 1368v94h680v-94h-291v-1368h-98v1368h-291z" />
<glyph unicode="U" horiz-adv-x="1012" d="M147 475v987h99v-999q0 -191 68 -290t196 -99q127 0 191.5 99t64.5 294v995h98v-987q0 -494 -354 -494q-177 0 -270 127.5t-93 366.5z" />
<glyph unicode="V" horiz-adv-x="799" d="M0 1462h102l238 -1028q14 -60 23 -103t14 -71q9 -56 18 -139q4 29 8 57.5t9 56.5t8.5 51.5t8.5 42.5l269 1133h101l-346 -1462h-109z" />
<glyph unicode="W" horiz-adv-x="1395" d="M10 1462h103l206 -1007q25 -124 40 -209.5t22 -134.5q11 81 25 165t32 175l205 1011h111l204 -1007q17 -82 27.5 -149t18.5 -121l10 -74q28 209 57 344l213 1007h100l-311 -1462h-119l-223 1094q-3 14 -12 73.5t-23 165.5l-14 -95l-23 -142l-219 -1096h-116z" />
<glyph unicode="X" horiz-adv-x="715" d="M20 0l306 776l-263 686h103l217 -608l211 608h100l-258 -708l258 -754h-102l-219 672l-254 -672h-99z" />
<glyph unicode="Y" horiz-adv-x="686" d="M0 1462h104l240 -755l238 755h104l-295 -891v-571h-98v571z" />
<glyph unicode="Z" horiz-adv-x="643" d="M57 0v88l424 1278h-418v96h527v-90l-430 -1278h442v-94h-545z" />
<glyph unicode="[" horiz-adv-x="645" d="M174 -323v1785h397v-90h-303v-1604h303v-91h-397z" />
<glyph unicode="\" horiz-adv-x="713" d="M51 1462h96l527 -1462h-101z" />
<glyph unicode="]" horiz-adv-x="645" d="M74 -232h303v1604h-303v90h397v-1785h-397v91z" />
<glyph unicode="^" horiz-adv-x="819" d="M37 758l338 702h67l340 -702h-102l-270 590l-273 -590h-100z" />
<glyph unicode="_" horiz-adv-x="842" d="M-3 -183h849v-82h-849v82z" />
<glyph unicode="`" horiz-adv-x="1126" d="M434 1552v17h125q14 -32 34 -69.5t48 -82.5t55.5 -83.5t53.5 -71.5v-21h-48q-32 26 -69.5 63t-79.5 85q-82 94 -119 163z" />
<glyph unicode="a" horiz-adv-x="784" d="M78 291q0 78 24 139.5t69 106t111 69.5t150 29l117 6v90q0 152 -38 221.5t-126 69.5q-93 0 -190 -61l-41 75q112 70 237 70q135 0 193 -85q59 -85 59 -282v-739h-78l-12 152h-4q-77 -171 -236 -171q-107 0 -171 83q-64 85 -64 227zM178 289q0 -118 42 -173t114 -55 q103 0 159 100t56 285v113l-113 -6q-132 -7 -195 -72t-63 -192z" />
<glyph unicode="b" horiz-adv-x="893" d="M145 0v1556h95v-483l-4 -131h8q85 162 237 162q318 0 318 -559q0 -278 -78.5 -421t-228.5 -143q-78 0 -142 42t-106 127h-8l-13 -150h-78zM240 520q0 -454 241 -454q110 0 164.5 117t54.5 362q0 235 -53 353t-170 118q-125 0 -181 -110t-56 -361v-25z" />
<glyph unicode="c" horiz-adv-x="635" d="M96 537q0 280 83 424.5t247 144.5q101 0 168 -37l-37 -84q-66 31 -123 31q-239 0 -239 -477q0 -473 239 -473q70 0 154 32v-80q-17 -9 -37 -15.5t-44 -11.5q-46 -10 -83 -10q-164 0 -246 140.5t-82 415.5z" />
<glyph unicode="d" horiz-adv-x="893" d="M94 541q0 276 79 420.5t233 144.5q73 0 138.5 -41.5t104.5 -116.5h8l-4 121v487h95v-1556h-78l-8 152h-9q-39 -84 -100.5 -127.5t-142.5 -43.5q-316 0 -316 560zM193 539q0 -234 53 -355t170 -121q115 0 176 105t61 311v62q0 246 -59.5 360.5t-181.5 114.5 q-117 0 -168 -122.5t-51 -354.5z" />
<glyph unicode="e" horiz-adv-x="803" d="M96 535q0 280 82 425.5t238 145.5q135 0 213 -129q78 -128 78 -346v-88h-514q2 -238 66.5 -355.5t197.5 -117.5q103 0 215 67v-92q-103 -64 -219 -64q-174 0 -265 145q-92 145 -92 409zM195 629h417q0 179 -55 285q-54 106 -147 106q-196 0 -215 -391z" />
<glyph unicode="f" horiz-adv-x="453" d="M20 1001v54l138 41v82q0 207 49 298t170 91q71 0 127 -25l-33 -88q-52 25 -93 25h-3q-36 -1 -60 -16t-38 -50t-19.5 -93t-5.5 -144v-91h170v-84h-170v-1001h-94v1001h-138z" />
<glyph unicode="g" horiz-adv-x="741" d="M35 -202q0 103 51.5 174.5t163.5 113.5q-51 22 -81 61t-30 93q0 49 32.5 87.5t92.5 82.5q-84 38 -126 123t-42 200q0 173 73 273t200 100q67 0 114 -21h230v-67l-148 -17q29 -38 49 -112q19 -70 19 -148q0 -159 -72 -256q-71 -98 -188 -98h-24l-21 2q-48 -34 -75.5 -68 t-27.5 -79q0 -46 36 -71.5t97 -25.5h68q146 0 225.5 -74.5t79.5 -216.5q0 -159 -108 -252q-107 -93 -283 -93q-148 0 -226.5 74t-78.5 215zM129 -194q0 -103 53 -161t162 -58q135 0 212 70q79 70 79 192q0 99 -53 151.5t-156 52.5h-70q-98 0 -163 -67q-64 -68 -64 -180z M188 731q0 -134 49 -202t130 -68q174 0 174 280q0 136 -44.5 211.5t-129.5 75.5q-88 0 -133.5 -77.5t-45.5 -219.5z" />
<glyph unicode="h" horiz-adv-x="870" d="M145 0v1556h95v-505q0 -35 -1 -63.5t-3 -51.5h8q32 82 96 125q64 45 135 45q138 0 196 -90t58 -268v-748h-94v748q0 73 -9.5 124.5t-29 84t-51 47t-74.5 14.5q-115 0 -173 -102t-58 -322v-594h-95z" />
<glyph unicode="i" horiz-adv-x="385" d="M131 1386q0 45 18.5 70t47.5 25q27 0 43 -25t16 -70q0 -43 -16 -68.5t-43 -25.5q-29 0 -47.5 25.5t-18.5 68.5zM145 0v1085h95v-1085h-95z" />
<glyph unicode="j" horiz-adv-x="385" d="M-3 -384q29 -16 62 -16q48 0 67 45t19 141v1299h95v-1285q0 -150 -43 -220.5t-134 -70.5q-41 0 -66 17v90zM131 1386q0 45 18.5 70t47.5 25q27 0 43 -25t16 -70q0 -43 -16 -68.5t-43 -25.5q-29 0 -47.5 25.5t-18.5 68.5z" />
<glyph unicode="k" horiz-adv-x="711" d="M145 0v1556h95v-837l-7 -182h9l61 110l268 438h103l-250 -399l272 -686h-100l-236 598l-120 -158v-440h-95z" />
<glyph unicode="l" horiz-adv-x="385" d="M145 0v1556h95v-1556h-95z" />
<glyph unicode="m" horiz-adv-x="1303" d="M145 0v1085h80l8 -151h9q64 172 221 172q90 0 142 -48t75 -140q39 100 96 144t148 44q61 0 106 -23t74 -71.5t43 -123.5t14 -179v-709h-94v739q0 273 -160 273q-110 0 -158.5 -95.5t-48.5 -281.5v-635h-94v739q0 139 -39 206t-121 67q-107 0 -157 -98q-49 -97 -49 -318 v-596h-95z" />
<glyph unicode="n" horiz-adv-x="870" d="M145 0v1085h80l8 -151h9q34 82 98 127t137 45q126 0 189 -84.5t63 -271.5v-750h-94v748q0 270 -160 270q-61 0 -105.5 -24.5t-73 -76.5t-42.5 -131.5t-14 -189.5v-596h-95z" />
<glyph unicode="o" horiz-adv-x="850" d="M94 545q0 561 332 561q156 0 243 -147t87 -414q0 -275 -86 -419.5t-248 -144.5q-160 0 -244 144.5t-84 419.5zM193 545q0 -236 55.5 -355.5t175.5 -119.5q233 0 233 475q0 471 -233 471q-122 0 -176.5 -118t-54.5 -353z" />
<glyph unicode="p" horiz-adv-x="893" d="M145 -491v1576h78l10 -149h9q40 82 102 126t137 44q318 0 318 -561q0 -135 -19.5 -240t-58 -177t-95.5 -109.5t-132 -37.5q-41 0 -79 11.5t-70.5 33.5t-58.5 53.5t-44 70.5h-9l7 -119v-522h-95zM240 551q0 -250 59 -367.5t180 -117.5q112 0 166.5 116.5t54.5 362.5 q0 235 -51 353t-174 118q-119 0 -177 -105t-58 -329v-31z" />
<glyph unicode="q" horiz-adv-x="893" d="M94 541q0 287 84 426t232 139q157 0 239 -166h8l15 145h76v-1576h-95v469q0 66 9 180h-9q-85 -177 -247 -177q-151 0 -231.5 138t-80.5 422zM193 539q0 -125 13.5 -214t41 -147t70.5 -85t102 -27q112 0 172.5 107.5t60.5 318.5v49q0 246 -59.5 360.5t-181.5 114.5 q-117 0 -168 -122.5t-51 -354.5z" />
<glyph unicode="r" horiz-adv-x="559" d="M145 0v1085h78l10 -190h7q76 211 206 211q50 0 95 -14l-23 -95q-18 8 -36.5 11t-37.5 4h-5q-39 0 -73 -32q-37 -34 -65 -93.5t-44.5 -140t-16.5 -171.5v-575h-95z" />
<glyph unicode="s" horiz-adv-x="645" d="M74 41v111q37 -37 98 -59.5t125 -22.5q85 0 132.5 54.5t47.5 147.5q0 71 -35 121q-17 25 -49.5 53t-81.5 60q-56 35 -94 63t-58 49q-40 42 -62.5 94t-22.5 124q0 117 79 193q80 77 201 77q130 0 219 -62l-49 -83q-82 55 -174 55q-42 0 -76 -13t-58 -36.5t-37 -57 t-13 -73.5q0 -72 34 -121q17 -24 53 -53t91 -64q54 -35 91 -63.5t57 -50.5q40 -42 59.5 -93.5t19.5 -118.5q0 -138 -71.5 -214.5t-208.5 -76.5q-75 0 -130.5 18.5t-86.5 41.5z" />
<glyph unicode="t" horiz-adv-x="449" d="M43 1001v56l96 28l31 258h66v-258h172v-84h-172v-743q0 -110 24 -150t84 -40q43 0 78 12v-80q-46 -19 -113 -19q-168 0 -168 250v770h-98z" />
<glyph unicode="u" horiz-adv-x="870" d="M141 377v708h95v-708q0 -162 38 -235.5t119 -73.5q61 0 106 24t74.5 75.5t43.5 131t14 190.5v596h94v-1085h-80l-12 152h-8q-35 -84 -97 -127.5t-135 -43.5q-131 0 -192 92q-60 93 -60 304z" />
<glyph unicode="v" horiz-adv-x="653" d="M10 1085h96l162 -698q28 -122 54 -264h8q4 26 8.5 55t11.5 61t56 243.5t141 602.5h96l-264 -1085h-113z" />
<glyph unicode="w" horiz-adv-x="1124" d="M20 1085h95l135 -632l63 -330h6q9 72 23.5 154.5t34.5 177.5l135 630h100l136 -632q8 -35 22.5 -117t34.5 -213h6q2 17 9 58t20 108t56 265.5t114 530.5h94l-244 -1085h-112l-150 735l-4 17l-31 192h-2l-14 -85l-23 -124l-155 -735h-113z" />
<glyph unicode="x" horiz-adv-x="676" d="M35 0l258 563l-238 522h103l182 -440l190 440h99l-242 -534l254 -551h-100l-203 469l-205 -469h-98z" />
<glyph unicode="y" horiz-adv-x="653" d="M-1 -388q40 -14 77 -14q30 0 53 12.5t41 39t33 67.5t30 98l48 187l-271 1083h96l164 -677q15 -61 28.5 -129.5t27.5 -145.5h8q10 67 23 136t30 141l160 675h96l-317 -1289q-35 -144 -91.5 -215.5t-150.5 -71.5q-37 0 -85 17v86z" />
<glyph unicode="z" horiz-adv-x="541" d="M59 0v76l320 925h-299v84h399v-77l-319 -924h334v-84h-435z" />
<glyph unicode="{" horiz-adv-x="737" d="M109 535v69q76 0 121 20q22 10 38.5 25t26.5 37.5t15 55t5 77.5v324q0 149 83.5 232t234.5 87v-80q-112 -2 -165.5 -58.5t-53.5 -176.5v-316q0 -122 -46 -180q-45 -58 -149 -78v-8q106 -19 150 -79q45 -59 45 -179v-314q0 -120 53.5 -177t165.5 -59v-80 q-153 4 -235.5 88.5t-82.5 231.5v322q0 87 -20 132q-19 43 -63 63.5t-123 20.5z" />
<glyph unicode="|" horiz-adv-x="819" d="M362 -491v2047h95v-2047h-95z" />
<glyph unicode="}" horiz-adv-x="737" d="M104 -243q112 2 166 59t54 177v314q0 120 44 179q46 60 150 79v8q-102 19 -149 78q-45 58 -45 180v316q0 120 -54 176.5t-166 58.5v80q75 -2 134 -24.5t100 -63.5t62.5 -99.5t21.5 -131.5v-324q0 -89 20 -132q20 -42 64.5 -62.5t122.5 -20.5v-69q-78 0 -123 -21 q-44 -20 -64 -62q-20 -43 -20 -133v-322q0 -74 -21.5 -132t-62 -99.5t-100 -64t-134.5 -24.5v80z" />
<glyph unicode="~" horiz-adv-x="819" d="M59 618v99q75 106 185 106q41 0 75 -10q37 -9 109 -49q49 -28 83 -40.5t69 -12.5q49 0 96 32.5t84 83.5v-98q-74 -104 -180 -104q-51 0 -84 10q-17 5 -42.5 17.5t-60.5 31.5q-60 34 -89 44q-31 11 -62 11q-42 0 -91 -32t-92 -89z" />
<glyph unicode="&#xa0;" />
<glyph unicode="&#xa1;" />
<glyph unicode="&#xa2;" />
<glyph unicode="&#xa3;" />
<glyph unicode="&#xa4;" />
<glyph unicode="&#xa5;" />
<glyph unicode="&#xa6;" />
<glyph unicode="&#xa7;" />
<glyph unicode="&#xa8;" horiz-adv-x="1126" d="M348 1389q0 43 19.5 62t44.5 19q23 0 42 -19t19 -62q0 -45 -19 -64.5t-42 -19.5q-25 0 -44.5 19.5t-19.5 64.5zM653 1389q0 43 19.5 62t42.5 19q25 0 44 -19t19 -62q0 -45 -19 -64.5t-44 -19.5q-23 0 -42.5 19.5t-19.5 64.5z" />
<glyph unicode="&#xa9;" horiz-adv-x="1704" d="M100 731q0 200 100 375q101 176 275 276q176 101 377 101q200 0 375 -100q176 -101 276 -275q101 -176 101 -377q0 -198 -97 -370q-49 -87 -116.5 -156t-155.5 -121q-175 -103 -383 -103q-104 0 -199 25t-183 77q-175 103 -273 277q-97 172 -97 371zM193 731 q0 -179 88 -330t241 -240q152 -89 330 -89t329 88q152 89 241 241t89 330q0 173 -86 325t-239 243q-154 92 -334 92q-175 0 -329 -89q-76 -45 -136 -104.5t-105 -137.5q-89 -155 -89 -329zM489 725q0 207 111 332t297 125q120 0 227 -52l-37 -83q-98 45 -190 45 q-142 0 -223 -95q-80 -95 -80 -264q0 -187 74 -275.5t221 -88.5q85 0 198 43v-88q-102 -45 -208 -45q-188 0 -289 114.5t-101 331.5z" />
<glyph unicode="&#xaa;" />
<glyph unicode="&#xab;" horiz-adv-x="856" d="M82 514v27l287 366l61 -35l-219 -344l219 -344l-61 -37zM426 514v27l289 366l59 -35l-217 -344l217 -344l-59 -37z" />
<glyph unicode="&#xac;" />
<glyph unicode="&#xad;" />
<glyph unicode="&#xae;" horiz-adv-x="1704" d="M100 731q0 200 100 375q101 176 275 276q176 101 377 101q200 0 375 -100q176 -101 276 -275q101 -176 101 -377q0 -198 -97 -370q-49 -87 -116.5 -156t-155.5 -121q-175 -103 -383 -103q-104 0 -199 25t-183 77q-175 103 -273 277q-97 172 -97 371zM193 731 q0 -179 88 -330t241 -240q152 -89 330 -89t329 88q152 89 241 241t89 330q0 173 -86 325t-239 243q-154 92 -334 92q-175 0 -329 -89q-76 -45 -136 -104.5t-105 -137.5q-89 -155 -89 -329zM608 291v880h211q143 0 222 -62t79 -191q0 -176 -147 -240l198 -387h-114l-174 360 h-174v-360h-101zM709 731h112q91 0 143 46t52 136q0 172 -197 172h-110v-354z" />
<glyph unicode="&#xaf;" />
<glyph unicode="&#xb0;" />
<glyph unicode="&#xb1;" />
<glyph unicode="&#xb2;" />
<glyph unicode="&#xb3;" />
<glyph unicode="&#xb4;" />
<glyph unicode="&#xb5;" />
<glyph unicode="&#xb6;" />
<glyph unicode="&#xb7;" />
<glyph unicode="&#xb8;" />
<glyph unicode="&#xb9;" />
<glyph unicode="&#xba;" />
<glyph unicode="&#xbb;" horiz-adv-x="856" d="M82 184l217 344l-217 344l59 35l289 -366v-27l-289 -367zM426 184l219 344l-219 344l61 35l287 -366v-27l-287 -367z" />
<glyph unicode="&#xbc;" />
<glyph unicode="&#xbd;" />
<glyph unicode="&#xbe;" />
<glyph unicode="&#xbf;" />
<glyph unicode="&#xc0;" />
<glyph unicode="&#xc1;" />
<glyph unicode="&#xc2;" />
<glyph unicode="&#xc3;" />
<glyph unicode="&#xc4;" horiz-adv-x="813" d="M0 0l352 1462h101l360 -1462h-100l-129 530h-355l-127 -530h-102zM193 1727q0 43 19.5 62t44.5 19q23 0 42 -19t19 -62q0 -45 -19 -64.5t-42 -19.5q-25 0 -44.5 19.5t-19.5 64.5zM248 629h313l-129 545q-11 46 -18.5 89t-12.5 85q-5 -44 -11.5 -87t-16.5 -87zM498 1727 q0 43 19.5 62t42.5 19q25 0 44 -19t19 -62q0 -45 -19 -64.5t-44 -19.5q-23 0 -42.5 19.5t-19.5 64.5z" />
<glyph unicode="&#xc5;" />
<glyph unicode="&#xc6;" />
<glyph unicode="&#xc7;" />
<glyph unicode="&#xc8;" horiz-adv-x="788" d="M160 0v1462h530v-94h-432v-555h408v-94h-408v-625h432v-94h-530zM201 1890v17h125q14 -32 34 -69.5t48 -82.5t55.5 -83.5t53.5 -71.5v-21h-48q-32 26 -69.5 63t-79.5 85q-82 94 -119 163z" />
<glyph unicode="&#xc9;" horiz-adv-x="788" d="M160 0v1462h530v-94h-432v-555h408v-94h-408v-625h432v-94h-530z" />
<glyph unicode="&#xca;" horiz-adv-x="788" d="M160 0v1462h530v-94h-432v-555h408v-94h-408v-625h432v-94h-530z" />
<glyph unicode="&#xcb;" />
<glyph unicode="&#xcc;" />
<glyph unicode="&#xcd;" />
<glyph unicode="&#xce;" />
<glyph unicode="&#xcf;" />
<glyph unicode="&#xd0;" />
<glyph unicode="&#xd1;" horiz-adv-x="1090" d="M160 0v1462h127l549 -1296h6q-4 82 -6 150.5t-2 123.5v1022h96v-1462h-125l-553 1311h-8q12 -137 12 -262v-1049h-96z" />
<glyph unicode="&#xd2;" />
<glyph unicode="&#xd3;" />
<glyph unicode="&#xd4;" />
<glyph unicode="&#xd5;" />
<glyph unicode="&#xd6;" horiz-adv-x="1065" d="M111 735q0 378 106 563t318 185q203 0 311 -195q54 -97 81 -235t27 -320q0 -364 -109 -558q-107 -194 -313 -194q-208 0 -314 195q-107 197 -107 559zM213 733q0 -328 81 -493.5t238 -165.5t238.5 165t81.5 494q0 327 -79.5 491.5t-237.5 164.5q-161 0 -241.5 -167.5 t-80.5 -488.5zM328 1727q0 43 19.5 62t44.5 19q23 0 42 -19t19 -62q0 -45 -19 -64.5t-42 -19.5q-25 0 -44.5 19.5t-19.5 64.5zM633 1727q0 43 19.5 62t42.5 19q25 0 44 -19t19 -62q0 -45 -19 -64.5t-44 -19.5q-23 0 -42.5 19.5t-19.5 64.5z" />
<glyph unicode="&#xd7;" />
<glyph unicode="&#xd8;" />
<glyph unicode="&#xd9;" horiz-adv-x="1012" d="M147 475v987h99v-999q0 -191 68 -290t196 -99q127 0 191.5 99t64.5 294v995h98v-987q0 -494 -354 -494q-177 0 -270 127.5t-93 366.5zM279 1890v17h125q14 -32 34 -69.5t48 -82.5t55.5 -83.5t53.5 -71.5v-21h-48q-32 26 -69.5 63t-79.5 85q-82 94 -119 163z" />
<glyph unicode="&#xda;" horiz-adv-x="1012" d="M147 475v987h99v-999q0 -191 68 -290t196 -99q127 0 191.5 99t64.5 294v995h98v-987q0 -494 -354 -494q-177 0 -270 127.5t-93 366.5z" />
<glyph unicode="&#xdb;" horiz-adv-x="1012" d="M147 475v987h99v-999q0 -191 68 -290t196 -99q127 0 191.5 99t64.5 294v995h98v-987q0 -494 -354 -494q-177 0 -270 127.5t-93 366.5z" />
<glyph unicode="&#xdc;" horiz-adv-x="1012" d="M147 475v987h99v-999q0 -191 68 -290t196 -99q127 0 191.5 99t64.5 294v995h98v-987q0 -494 -354 -494q-177 0 -270 127.5t-93 366.5zM294 1727q0 43 19.5 62t44.5 19q23 0 42 -19t19 -62q0 -45 -19 -64.5t-42 -19.5q-25 0 -44.5 19.5t-19.5 64.5zM599 1727q0 43 19.5 62 t42.5 19q25 0 44 -19t19 -62q0 -45 -19 -64.5t-44 -19.5q-23 0 -42.5 19.5t-19.5 64.5z" />
<glyph unicode="&#xdd;" />
<glyph unicode="&#xde;" />
<glyph unicode="&#xdf;" horiz-adv-x="823" d="M145 0v1204q0 86 18.5 153.5t54 114t87 71t117.5 24.5q118 0 177.5 -70.5t59.5 -206.5q0 -120 -91 -238q-48 -61 -69.5 -104.5t-21.5 -85.5q0 -57 22 -101q11 -22 32.5 -54t56.5 -74l59 -70q52 -62 78.5 -126t26.5 -140q0 -149 -71 -234q-70 -82 -189 -82q-48 0 -96 13 t-79 39v100q36 -25 77 -44t98 -19q78 0 120.5 58t42.5 163q0 60 -23 117q-22 54 -106 155q-39 47 -65.5 87t-43.5 76t-24.5 69.5t-7.5 66.5q0 25 5 48.5t15.5 47.5t27.5 50t41 56q46 58 67.5 112.5t21.5 117.5q0 183 -147 183q-85 0 -130.5 -67t-45.5 -196v-1214h-95z" />
<glyph unicode="&#xe0;" horiz-adv-x="784" d="M78 291q0 78 24 139.5t69 106t111 69.5t150 29l117 6v90q0 152 -38 221.5t-126 69.5q-93 0 -190 -61l-41 75q112 70 237 70q135 0 193 -85q59 -85 59 -282v-739h-78l-12 152h-4q-77 -171 -236 -171q-107 0 -171 83q-64 85 -64 227zM165 1552v17h125q14 -32 34 -69.5 t48 -82.5t55.5 -83.5t53.5 -71.5v-21h-48q-32 26 -69.5 63t-79.5 85q-82 94 -119 163zM178 289q0 -118 42 -173t114 -55q103 0 159 100t56 285v113l-113 -6q-132 -7 -195 -72t-63 -192z" />
<glyph unicode="&#xe1;" horiz-adv-x="784" d="M78 291q0 78 24 139.5t69 106t111 69.5t150 29l117 6v90q0 152 -38 221.5t-126 69.5q-93 0 -190 -61l-41 75q112 70 237 70q135 0 193 -85q59 -85 59 -282v-739h-78l-12 152h-4q-77 -171 -236 -171q-107 0 -171 83q-64 85 -64 227zM178 289q0 -118 42 -173t114 -55 q103 0 159 100t56 285v113l-113 -6q-132 -7 -195 -72t-63 -192z" />
<glyph unicode="&#xe2;" />
<glyph unicode="&#xe3;" />
<glyph unicode="&#xe4;" horiz-adv-x="784" d="M78 291q0 78 24 139.5t69 106t111 69.5t150 29l117 6v90q0 152 -38 221.5t-126 69.5q-93 0 -190 -61l-41 75q112 70 237 70q135 0 193 -85q59 -85 59 -282v-739h-78l-12 152h-4q-77 -171 -236 -171q-107 0 -171 83q-64 85 -64 227zM167 1389q0 43 19.5 62t44.5 19 q23 0 42 -19t19 -62q0 -45 -19 -64.5t-42 -19.5q-25 0 -44.5 19.5t-19.5 64.5zM178 289q0 -118 42 -173t114 -55q103 0 159 100t56 285v113l-113 -6q-132 -7 -195 -72t-63 -192zM472 1389q0 43 19.5 62t42.5 19q25 0 44 -19t19 -62q0 -45 -19 -64.5t-44 -19.5 q-23 0 -42.5 19.5t-19.5 64.5z" />
<glyph unicode="&#xe5;" />
<glyph unicode="&#xe6;" />
<glyph unicode="&#xe7;" />
<glyph unicode="&#xe8;" />
<glyph unicode="&#xe9;" />
<glyph unicode="&#xea;" />
<glyph unicode="&#xeb;" />
<glyph unicode="&#xec;" />
<glyph unicode="&#xed;" />
<glyph unicode="&#xee;" />
<glyph unicode="&#xef;" />
<glyph unicode="&#xf0;" />
<glyph unicode="&#xf1;" />
<glyph unicode="&#xf2;" />
<glyph unicode="&#xf3;" />
<glyph unicode="&#xf4;" />
<glyph unicode="&#xf5;" />
<glyph unicode="&#xf6;" horiz-adv-x="850" d="M94 545q0 561 332 561q156 0 243 -147t87 -414q0 -275 -86 -419.5t-248 -144.5q-160 0 -244 144.5t-84 419.5zM193 545q0 -236 55.5 -355.5t175.5 -119.5q233 0 233 475q0 471 -233 471q-122 0 -176.5 -118t-54.5 -353zM212 1389q0 43 19.5 62t44.5 19q23 0 42 -19 t19 -62q0 -45 -19 -64.5t-42 -19.5q-25 0 -44.5 19.5t-19.5 64.5zM517 1389q0 43 19.5 62t42.5 19q25 0 44 -19t19 -62q0 -45 -19 -64.5t-44 -19.5q-23 0 -42.5 19.5t-19.5 64.5z" />
<glyph unicode="&#xf7;" />
<glyph unicode="&#xf8;" />
<glyph unicode="&#xf9;" />
<glyph unicode="&#xfa;" />
<glyph unicode="&#xfb;" />
<glyph unicode="&#xfc;" horiz-adv-x="870" d="M141 377v708h95v-708q0 -162 38 -235.5t119 -73.5q61 0 106 24t74.5 75.5t43.5 131t14 190.5v596h94v-1085h-80l-12 152h-8q-35 -84 -97 -127.5t-135 -43.5q-131 0 -192 92q-60 93 -60 304zM220 1389q0 43 19.5 62t44.5 19q23 0 42 -19t19 -62q0 -45 -19 -64.5t-42 -19.5 q-25 0 -44.5 19.5t-19.5 64.5zM525 1389q0 43 19.5 62t42.5 19q25 0 44 -19t19 -62q0 -45 -19 -64.5t-44 -19.5q-23 0 -42.5 19.5t-19.5 64.5z" />
<glyph unicode="&#xfd;" />
<glyph unicode="&#xfe;" />
<glyph unicode="&#xff;" />
<glyph unicode="&#x152;" />
<glyph unicode="&#x153;" />
<glyph unicode="&#x178;" />
<glyph unicode="&#x2c6;" />
<glyph unicode="&#x2dc;" />
<glyph unicode="&#x2000;" horiz-adv-x="953" />
<glyph unicode="&#x2001;" horiz-adv-x="1907" />
<glyph unicode="&#x2002;" horiz-adv-x="953" />
<glyph unicode="&#x2003;" horiz-adv-x="1907" />
<glyph unicode="&#x2004;" horiz-adv-x="635" />
<glyph unicode="&#x2005;" horiz-adv-x="476" />
<glyph unicode="&#x2006;" horiz-adv-x="317" />
<glyph unicode="&#x2007;" horiz-adv-x="317" />
<glyph unicode="&#x2008;" horiz-adv-x="238" />
<glyph unicode="&#x2009;" horiz-adv-x="381" />
<glyph unicode="&#x200a;" horiz-adv-x="105" />
<glyph unicode="&#x2010;" horiz-adv-x="516" d="M53 502v102h410v-102h-410z" />
<glyph unicode="&#x2011;" horiz-adv-x="516" d="M53 502v102h410v-102h-410z" />
<glyph unicode="&#x2012;" horiz-adv-x="516" d="M53 502v102h410v-102h-410z" />
<glyph unicode="&#x2013;" horiz-adv-x="1024" d="M82 512v82h860v-82h-860z" />
<glyph unicode="&#x2014;" d="M82 512v82h1884v-82h-1884z" />
<glyph unicode="&#x2018;" />
<glyph unicode="&#x2019;" />
<glyph unicode="&#x201a;" />
<glyph unicode="&#x201c;" />
<glyph unicode="&#x201d;" />
<glyph unicode="&#x201e;" />
<glyph unicode="&#x2022;" />
<glyph unicode="&#x2026;" />
<glyph unicode="&#x202f;" horiz-adv-x="381" />
<glyph unicode="&#x2039;" />
<glyph unicode="&#x203a;" />
<glyph unicode="&#x205f;" horiz-adv-x="476" />
<glyph unicode="&#x20ac;" horiz-adv-x="819" d="M35 535v81h137l-2 101v39l2 61h-137v82h141q16 269 118 428q101 158 255 158q122 0 223 -74l-51 -86q-86 61 -168 61q-237 0 -274 -487h325v-82h-330l-2 -76v-73l2 -52h297v-81h-292q15 -234 87 -345.5t203 -111.5q53 0 96 10.5t91 36.5v-100q-86 -44 -187 -44 q-177 0 -274 136.5t-119 417.5h-141z" />
<glyph unicode="&#x2122;" horiz-adv-x="1452" d="M14 1384v78h523v-78h-220v-643h-86v643h-217zM612 741v721h125l221 -606l224 606h125v-721h-86v398l6 207h-8l-228 -605h-73l-222 609h-8l6 -201v-408h-82z" />
<glyph unicode="&#xe000;" horiz-adv-x="1085" d="M0 0v1085h1085v-1085h-1085z" />
<glyph unicode="&#xfb01;" />
<glyph unicode="&#xfb02;" />
<glyph unicode="&#xfb03;" />
<glyph unicode="&#xfb04;" />
</font>
</defs>
</svg>
